Скачать через торрент The Cranberries - Zombie бесплатно русская версия torrent активатор

Если у вас наблюдаются проблемы со скриншотами, переходом по ссылками, скачиванием торрентов - проблемы в блокировщике рекламы AdBlock. #хорошегоДня!


Статистика раздачи
Размер:  76 MB   |    Зарегистрирован:  5 лет 5 месяцев   |    .torrent скачан:  100 раз   |   
Раздают:  1  
   
Загрузка...
 
Автор Сообщение

Galfimbul

avatar Galfimbul


The Cranberries / Zombie

Жанр: Rock
Страна-производитель диска: Germany
Год издания диска: 1994
Издатель (лейбл): Island
Номер по каталогу: 74321 23241 2
Аудиокодек: ALAC
Рипнуто: foobar2000+iTunes
Битрейт аудио: lossless
Продолжительность: 11:18
Наличие сканов в содержимом раздачи: нет
Тексты: вшиты

Треклист:
1 Zombie (Full Length Album Version) 5:07
2 Away 2:39
3 I Don't Need 3:30
  
Exact Audio Copy V1.0 beta 2 from 29. April 2011

EAC extraction logfile from 5. October 2011, 19:34

The Cranberries / Zombie

Used drive : HL-DT-STDVDRAM GSA-H12L Adapter: 0 ID: 0

Read mode : SecureUtilize accurate stream : YesDefeat audio cache : YesMake use of C2 pointers : No

Read offset correction : 667Overread into Lead-In and Lead-Out : NoFill up missing offset samples with silence : YesDelete leading and trailing silent blocks : NoNull samples used in CRC calculations : YesUsed interface : Native Win32 interface for Win NT & 2000

Used output format : User Defined EncoderSelected bitrate : 896 kBit/sQuality : HighAdd ID3 tag : NoCommand line compressor : C:\Program Files\FLAC\flac.exeAdditional command line options : -5 -T "Artist=%artist%" -T "Title=%title%" -T "Album=%albumtitle%" -T "Date=%year%" -T "Tracknumber=%tracknr%" -T "Genre=%genre%" %source% -o %dest%

TOC of the extracted CD

Track | Start | Length | Start sector | End sector --------------------------------------------------------- 1 | 0:00.00 | 5:07.52 | 0 | 23076 2 | 5:07.52 | 2:39.35 | 23077 | 35036 3 | 7:47.12 | 3:30.63 | 35037 | 50849

Range status and errors

Selected range

Filename I:\=== VINYL RIPS ===\=== EAC===\The Cranberries - Zombie.wav

Peak level 99.4 % Extraction speed 5.6 X Range quality 100.0 % Test CRC 8546AC2E Copy CRC 8546AC2E Copy OK

No errors occurred

AccurateRip summary

Track 1 accurately ripped (confidence 5) [88F31888] (AR v2)Track 2 accurately ripped (confidence 6) [219F7D8B] (AR v2)Track 3 accurately ripped (confidence 6) [B8C43B61] (AR v2)

All tracks accurately ripped

End of status report

==== Log checksum 6C2B0627BBA7E85D6F2BBADCEDA25BF8B6A5BF87EC207B8A90DC75E0196B2ED7 ====
  
AUDIOCHECKER v2.0 beta (build 457) - by Dester - <a href="mailto:opdester@freemail.hu" class="postLink">opdester@freemail.hu</a>~~~~~~~~~~~~~~~~~~~~~~~~~~~~~~~~~~-=== DO NOT EDIT THIS FILE! ===-

Path: ...\The Cranberries - Zombie (GER 1994)

1 -=- The Cranberries - Zombie.flac -=- CDDA (99%)

30333348


Трекер:  [ 07-Май-2012 07:22 ]

  

Скачать .torrent

Размер .torrent файла 12 KB


Размер: 76 MB
Хэш (hash) релиза: ac0d9cd358d1aae765b0036f1a8952cf5ef03bc8

Еще никто не оставлял запись к записи скачать торрент The Cranberries - Zombie . Будь первым!

!Обратная связь