Скачать через торрент France Gall - Baby Pop - 1966 бесплатно русская версия torrent активатор

Если у вас наблюдаются проблемы со скриншотами, переходом по ссылками, скачиванием торрентов - проблемы в блокировщике рекламы AdBlock. #хорошегоДня!


Статистика раздачи
Размер:  99 MB   |    Зарегистрирован:  5 лет 5 месяцев   |    .torrent скачан:  28 раз   |   
Раздают:  1  
   
Загрузка...
 
Автор Сообщение

Galfimbul

avatar Galfimbul


France Gall - Baby Pop

Год: 2000
Страна: France
Страна-производитель диска: EU
Жанр: Pop, Chanson
Тип издания: переиздание
Издатель (лейбл): Polydor
Номер по каталогу: 539 842-2
Наличие сканов в содержимом раздачи: нет
Продолжительность: 00:29:56
Тексты: вшиты
Кодек: ALAC
Программа-риповщик : foobar2000 + iTunes (lossless)
Битрейт: lossless

Треклист:
01 Baby Pop 3:21
02 Faut-Il Que Je T'Aime 2:08
03 Le Temps De La Rentrée 1:33
04 Attends Ou Va-T'En 2:29
05 Mon Bateau De Nuit 2:28
06 L'Amérique 2:20
07 Cet Air Là 2:33
08 C'Est Pas Facile D'Être Une Fille 2:32
09 Nous Ne Sommes Pas Des Anges 2:42
10 On Se Ressemble Toi Et Moi 2:45
11 Deux Oiseaux 2:20
12 Et Des Baisers 2:10
  
Exact Audio Copy V0.99 prebeta 5 from 4. May 2009

EAC extraction logfile from 18. February 2010, 23:23

France Gall / Baby Pop

Used drive : _NEC DVD+-RW ND-3530A Adapter: 0 ID: 0

Read mode : SecureUtilize accurate stream : YesDefeat audio cache : YesMake use of C2 pointers : No

Read offset correction : 48Overread into Lead-In and Lead-Out : NoFill up missing offset samples with silence : YesDelete leading and trailing silent blocks : NoNull samples used in CRC calculations : YesUsed interface : Native Win32 interface for Win NT & 2000

Used output format : Internal WAV RoutinesSample format : 44.100 Hz; 16 Bit; Stereo

TOC of the extracted CD

Track | Start | Length | Start sector | End sector --------------------------------------------------------- 1 | 0:00.00 | 3:23.62 | 0 | 15286 2 | 3:23.62 | 2:11.23 | 15287 | 25134 3 | 5:35.10 | 1:34.72 | 25135 | 32256 4 | 7:10.07 | 2:32.60 | 32257 | 43716 5 | 9:42.67 | 2:30.72 | 43717 | 55038 6 | 12:13.64 | 2:22.11 | 55039 | 65699 7 | 14:36.00 | 2:34.07 | 65700 | 77256 8 | 17:10.07 | 2:34.50 | 77257 | 88856 9 | 19:44.57 | 2:44.48 | 88857 | 101204 10 | 22:29.30 | 2:47.30 | 101205 | 113759 11 | 25:16.60 | 2:23.57 | 113760 | 124541 12 | 27:40.42 | 2:15.48 | 124542 | 134714

Range status and errors

Selected range

Filename D:\EAC\France Gall - Baby Pop.wav

Peak level 100.0 % Range quality 99.9 % Copy CRC 0FE1A0EB Copy OK

No errors occurred

AccurateRip summary

Track 1 accurately ripped (confidence 2) [C15921CD]Track 2 accurately ripped (confidence 2) [315D682C]Track 3 accurately ripped (confidence 2) [D93B3879]Track 4 accurately ripped (confidence 2) [B0BA1896]Track 5 accurately ripped (confidence 2) [80BF73EC]Track 6 accurately ripped (confidence 2) [3906FEF5]Track 7 accurately ripped (confidence 2) [AA6C218E]Track 8 accurately ripped (confidence 2) [D2F9BD95]Track 9 accurately ripped (confidence 2) [F51CC19E]Track 10 accurately ripped (confidence 2) [BEB83675]Track 11 accurately ripped (confidence 2) [B07B5F41]Track 12 accurately ripped (confidence 2) [9271E8EA]

All tracks accurately ripped

End of status report
  
-----------------------

DON'T MODIFY THIS FILE

-----------------------

PERFORMER: auCDtect Task Manager, ver. 1.5.1RC6 build 1.5.1.7Copyright (c) 2008-2010 y-soft. All rights reservedhttp://y-soft.org

ANALYZER: auCDtect: CD records authenticity detector, version 0.8.2Copyright (c) 2004 Oleg Berngardt. All rights reserved.Copyright (c) 2004 Alexander Djourik. All rights reserved.

FILE: France Gall - Baby Pop.ape Size: 106462736 Hash: 428C266607F05ED531E49C03BB8E967D Accuracy: -m0 Conclusion: CDDA 58% Signature: 2A5002BB258B2F8B2B72FE95E8FB48A7DE5937C6


Трекер:  [ 07-Май-2012 07:22 ]

  

Скачать .torrent

Размер .torrent файла 16 KB


Размер: 99 MB
Хэш (hash) релиза: 4764ce4adb9ff0ea55890e48008a63782274e37d

Еще никто не оставлял запись к записи скачать торрент France Gall - Baby Pop - 1966 . Будь первым!

!Обратная связь