Скачать через торрент R.E.M. бесплатно русская версия torrent активатор

Если у вас наблюдаются проблемы со скриншотами, переходом по ссылками, скачиванием торрентов - проблемы в блокировщике рекламы AdBlock. #хорошегоДня!


Статистика раздачи
Размер:  102 MB   |    Зарегистрирован:  5 лет 5 месяцев   |    .torrent скачан:  40 раз   |   
Раздают:  1  
   
Загрузка...
 
Автор Сообщение

Galfimbul

avatar Galfimbul


R.E.M. - Losing My Religion

Год: 1991
Страна-производитель диска: Germany
Жанр: Alternative/Pop-rock
Тип издания: сингл
Издатель (лейбл): Warner Bros.
Номер по каталогу: 9362-40399-2
Наличие сканов в содержимом раздачи: нет
Продолжительность: 00:16:31
Тексты: вшиты
Кодек: ALAC
Программа-риповщик : foobar2000 + iTunes (lossless)
Битрейт: lossless

Треклист:
1 Losing My Religion (Album Version) 4:29
2 Fretless 4:51
3 Losing My Religion (Live Acoustic Version / Rockline) 4:38
4 Rotary Eleven 2:32
  
Exact Audio Copy V0.99 prebeta 5 from 4. May 2009

EAC extraction logfile from 19. October 2010, 9:05

R.E.M. / Losing My Religion (MAXI)

Used drive : HL-DT-STDVDRAM GSA-H12L Adapter: 0 ID: 0

Read mode : SecureUtilize accurate stream : YesDefeat audio cache : YesMake use of C2 pointers : No

Read offset correction : 667Overread into Lead-In and Lead-Out : NoFill up missing offset samples with silence : YesDelete leading and trailing silent blocks : NoNull samples used in CRC calculations : YesUsed interface : Installed external ASPI interfaceGap handling : Appended to previous track

Used output format : User Defined EncoderSelected bitrate : 1024 kBit/sQuality : HighAdd ID3 tag : NoCommand line compressor : C:\Programme\FLAC\flac.exeAdditional command line options : -6 -T "Artist=%a" -T "Title=%t" -T "Album=%g" -T "Date=%y" -T "Tracknumber=%n" -T "Genre=%m" %s -o %d

TOC of the extracted CD

Track | Start | Length | Start sector | End sector --------------------------------------------------------- 1 | 0:00.00 | 4:29.22 | 0 | 20196 2 | 4:29.22 | 4:51.30 | 20197 | 42051 3 | 9:20.52 | 4:38.28 | 42052 | 62929 4 | 13:59.05 | 2:32.15 | 62930 | 74344

Track 1

Filename F:\=== VINYL RIPS ===\=== EAC===\01 Losing My Religion (Album Version).wav

Pre-gap length 0:00:02.00

Peak level 89.1 % Track quality 99.9 % Test CRC 98F58C5A Copy CRC 98F58C5A Accurately ripped (confidence 17) [B2E5D3CB] Copy OK

Track 2

Filename F:\=== VINYL RIPS ===\=== EAC===\02 Fretless.wav

Pre-gap length 0:00:02.10

Peak level 84.8 % Track quality 100.0 % Test CRC CDB0DF64 Copy CRC CDB0DF64 Accurately ripped (confidence 17) [6852F89C] Copy OK

Track 3

Filename F:\=== VINYL RIPS ===\=== EAC===\03 Losing My Religion (Live Acoustic Version).wav

Pre-gap length 0:00:01.57

Peak level 87.0 % Track quality 100.0 % Test CRC 0634171D Copy CRC 0634171D Accurately ripped (confidence 19) [7B72F0DB] Copy OK

Track 4

Filename F:\=== VINYL RIPS ===\=== EAC===\04 Rotary Eleven.wav

Pre-gap length 0:00:02.03

Peak level 80.4 % Track quality 100.0 % Test CRC F2BC6AD3 Copy CRC F2BC6AD3 Accurately ripped (confidence 17) [01D337DF] Copy OK

All tracks accurately ripped

No errors occurred

End of status report
  
AUDIOCHECKER v2.0 beta (build 457) - by Dester - <a href="mailto:opdester@freemail.hu" class="postLink">opdester@freemail.hu</a>~~~~~~~~~~~~~~~~~~~~~~~~~~~~~~~~~~-=== DO NOT EDIT THIS FILE! ===-

Path: ...\R.E.M. - Losing My Religion (Warner) (EU 1991)

1 -=- 01 Losing My Religion (Album Version).flac -=- CDDA (100%)2 -=- 02 Fretless.flac -=- CDDA (100%)3 -=- 03 Losing My Religion (Live Acoustic Version).flac -=- CDDA (100%)4 -=- 04 Rotary Eleven.flac -=- CDDA (100%)

Summary 100,00% CDDA

250311204


Трекер:  [ 07-Май-2012 07:22 ]

  

Скачать .torrent

Размер .torrent файла 16 KB


Размер: 102 MB
Хэш (hash) релиза: 1e5322d020dae18bddc44c2bde5b9804cf44ad6d

Еще никто не оставлял запись к записи скачать торрент R.E.M. . Будь первым!

!Обратная связь