Скачать порно через торрент Богиня минета UnionPeer.org бесплатно онлайн HD качество

Скачать новое порно 2015, 2014 новинки через торрент UnionPeer.org

Порно торрент бесплатно ЮнионПир.орг

Если у вас наблюдаются проблемы со скриншотами, переходом по ссылками, скачиванием торрентов - проблемы в блокировщике рекламы AdBlock. #хорошегоДня!


Статистика раздачи
Размер:  51 MB   |    Зарегистрирован:  5 лет 6 месяцев   |    .torrent скачан:  740 раз   |   
Раздают:  1  
   
Загрузка...
 
Автор Сообщение

_N_

avatar _N_


Богиня минета

Год производства: 2012 г.
Жанр: Blowjob, Masturbation, Facial, Oral Creampie
Описание:
Эта девочка просто БОГИНЯ минета - очень классно и умело сосёт, а потом старательно принимает сперму в ротик!
Доп. информация:
Роликов в раздаче несколько, объединять не стал специально. А так действо во всех трёх снято в одно время
Качество видео: CamRip
Формат видео: AVI
минет.avi
General
Format : AVI
Format/Info : Audio Video Interleave
File size : 19.3 MiB
Duration : 1mn 23s
Overall bit rate : 1 941 Kbps
Writing application : MEncoder SVN-r30881(20100311-gcc4.3.3)
Writing library : MPlayer

Video
ID : 0
Format : AVC
Format/Info : Advanced Video Codec
Format profile : <a href="mailto:High@L3.0" class="postLink">High@L3.0</a>
Format settings, CABAC : No
Format settings, ReFrames : 1 frame
Codec ID : avc1
Duration : 1mn 23s
Bit rate : 1 245 Kbps
Width : 480 pixels
Height : 360 pixels
Display aspect ratio : 4:3
Frame rate : 25.000 fps
Color space : YUV
Chroma subsampling : 4:2:0
Bit depth : 8 bits
Scan type : Progressive
Bits/(Pixel*Frame) : 0.288
Stream size : 12.4 MiB (64%)
Writing library : x264 core 80 r1378+57 6f6b50a
Encoding settings : cabac=0 / ref=1 / deblock=1:0:0 / analyse=0x3:0x113 / me=hex / subme=7 / psy=1 / psy_rd=1.0:0.0 / mixed_ref=0 / me_range=16 / chroma_me=1 / trellis=0 / 8x8dct=1 / cqm=0 / deadzone=21,11 / fast_pskip=1 / chroma_qp_offset=-2 / threads=6 / sliced_threads=0 / nr=0 / decimate=1 / mbaff=0 / constrained_intra=0 / bframes=0 / wpredp=2 / keyint=250 / keyint_min=25 / scenecut=40 / rc_lookahead=40 / rc=abr / mbtree=1 / bitrate=1245 / ratetol=1.0 / qcomp=0.60 / qpmin=10 / qpmax=51 / qpstep=4 / ip_ratio=1.40 / aq=1:1.00

Audio
ID : 1
Format : PCM
Format settings, Endianness : Little
Format settings, Sign : Signed
Codec ID : 1
Codec ID/Hint : Microsoft
Duration : 1mn 22s
Bit rate mode : Constant
Bit rate : 705.6 Kbps
Channel(s) : 2 channels
Sampling rate : 22.05 KHz
Bit depth : 16 bits
Stream size : 6.90 MiB (36%)
Interleave, duration : 509 ms (12.73 video frames)
Interleave, preload duration : 500 ms
минет 2.avi
General
Format : AVI
Format/Info : Audio Video Interleave
File size : 16.3 MiB
Duration : 1mn 14s
Overall bit rate : 1 835 Kbps
Writing application : MEncoder SVN-r30881(20100311-gcc4.3.3)
Writing library : MPlayer

Video
ID : 0
Format : AVC
Format/Info : Advanced Video Codec
Format profile : <a href="mailto:High@L3.0" class="postLink">High@L3.0</a>
Format settings, CABAC : No
Format settings, ReFrames : 1 frame
Codec ID : avc1
Duration : 1mn 14s
Bit rate : 1 138 Kbps
Width : 480 pixels
Height : 360 pixels
Display aspect ratio : 4:3
Frame rate : 25.000 fps
Color space : YUV
Chroma subsampling : 4:2:0
Bit depth : 8 bits
Scan type : Progressive
Bits/(Pixel*Frame) : 0.263
Stream size : 10.1 MiB (62%)
Writing library : x264 core 80 r1378+57 6f6b50a
Encoding settings : cabac=0 / ref=1 / deblock=1:0:0 / analyse=0x3:0x113 / me=hex / subme=7 / psy=1 / psy_rd=1.0:0.0 / mixed_ref=0 / me_range=16 / chroma_me=1 / trellis=0 / 8x8dct=1 / cqm=0 / deadzone=21,11 / fast_pskip=1 / chroma_qp_offset=-2 / threads=6 / sliced_threads=0 / nr=0 / decimate=1 / mbaff=0 / constrained_intra=0 / bframes=0 / wpredp=2 / keyint=250 / keyint_min=25 / scenecut=40 / rc_lookahead=40 / rc=abr / mbtree=1 / bitrate=1138 / ratetol=1.0 / qcomp=0.60 / qpmin=10 / qpmax=51 / qpstep=4 / ip_ratio=1.40 / aq=1:1.00

Audio
ID : 1
Format : PCM
Format settings, Endianness : Little
Format settings, Sign : Signed
Codec ID : 1
Codec ID/Hint : Microsoft
Duration : 1mn 13s
Bit rate mode : Constant
Bit rate : 705.6 Kbps
Channel(s) : 2 channels
Sampling rate : 22.05 KHz
Bit depth : 16 bits
Stream size : 6.18 MiB (38%)
Interleave, duration : 508 ms (12.69 video frames)
Interleave, preload duration : 500 ms
ням ням.avi
General
Format : AVI
Format/Info : Audio Video Interleave
File size : 15.6 MiB
Duration : 1mn 9s
Overall bit rate : 1 880 Kbps
Writing application : MEncoder SVN-r30881(20100311-gcc4.3.3)
Writing library : MPlayer

Video
ID : 0
Format : AVC
Format/Info : Advanced Video Codec
Format profile : <a href="mailto:High@L3.0" class="postLink">High@L3.0</a>
Format settings, CABAC : No
Format settings, ReFrames : 1 frame
Codec ID : avc1
Duration : 1mn 9s
Bit rate : 1 182 Kbps
Nominal bit rate : 1 245 Kbps
Width : 480 pixels
Height : 360 pixels
Display aspect ratio : 4:3
Frame rate : 25.000 fps
Color space : YUV
Chroma subsampling : 4:2:0
Bit depth : 8 bits
Scan type : Progressive
Bits/(Pixel*Frame) : 0.274
Stream size : 9.84 MiB (63%)
Writing library : x264 core 80 r1378+57 6f6b50a
Encoding settings : cabac=0 / ref=1 / deblock=1:0:0 / analyse=0x3:0x113 / me=hex / subme=7 / psy=1 / psy_rd=1.0:0.0 / mixed_ref=0 / me_range=16 / chroma_me=1 / trellis=0 / 8x8dct=1 / cqm=0 / deadzone=21,11 / fast_pskip=1 / chroma_qp_offset=-2 / threads=6 / sliced_threads=0 / nr=0 / decimate=1 / mbaff=0 / constrained_intra=0 / bframes=0 / wpredp=2 / keyint=250 / keyint_min=25 / scenecut=40 / rc_lookahead=40 / rc=abr / mbtree=1 / bitrate=1245 / ratetol=1.0 / qcomp=0.60 / qpmin=10 / qpmax=51 / qpstep=4 / ip_ratio=1.40 / aq=1:1.00

Audio
ID : 1
Format : PCM
Format settings, Endianness : Little
Format settings, Sign : Signed
Codec ID : 1
Codec ID/Hint : Microsoft
Duration : 1mn 8s
Bit rate mode : Constant
Bit rate : 705.6 Kbps
Channel(s) : 2 channels
Sampling rate : 22.05 KHz
Bit depth : 16 bits
Stream size : 5.76 MiB (37%)
Interleave, duration : 509 ms (12.74 video frames)
Interleave, preload duration : 500 ms

Альтернатива:


Трекер:  [ 04-Май-2012 14:29 ]

  

Скачать .torrent

Размер .torrent файла 16 KB


Размер: 51 MB
Хэш (hash) релиза: cb1f59a4555d7f2cd61f4038f3998f19ade04262

Еще никто не оставлял запись к записи скачать торрент Богиня минета . Будь первым!

!Обратная связь