Скачать через торрент Виктор Зинчук - Кельтский Альбом - 2011 бесплатно русская версия torrent активатор

Если у вас наблюдаются проблемы со скриншотами, переходом по ссылками, скачиванием торрентов - проблемы в блокировщике рекламы AdBlock. #хорошегоДня!


Статистика раздачи
Размер:  436 MB   |    Зарегистрирован:  5 лет 5 месяцев   |    .torrent скачан:  47 раз   |   
Раздают:  1  
   
Загрузка...
 
Автор Сообщение

Galfimbul

avatar Galfimbul


Виктор Зинчук - Кельтский Альбом

Год: 2011
Страна: Россия
Страна-производитель диска: Беларусь
Жанр: Rock/Folk
Тип издания: оригинал
Издатель (лейбл): ВИГМА
Номер по каталогу: 3612-1
Наличие сканов в содержимом раздачи: да
Продолжительность: 00:47:18
Тексты: не требуются
Кодек: ALAC
Программа-риповщик : foobar2000 + iTunes (lossless)
Битрейт: lossless
Треклист:
01. Ирландская полечка - O'Sullivans Fancy
02. Интродукция (Ленивая Мэгги) - Intro (Drowsy Maggie)
03. Принцесса - Princess
04. Дорогая просыпается - My Darling Asleep
05. Москва-Дублин - Moscow-Dublin
06. Отец Флин (Пчелы в вереске) - Father O'Flynn (The Bees In The Heather)
07. Сон Кэролана - O'Carolans Dream
08. Утренняя жига - The Morning Jig
09. 10 пенсов - 10 Pens
10. Кольца Брендена - Brendan Rings
11. Джордж Брабазон - George Brabazon (Second Air)
12. Веселье в виски (Вечер) - The Humours Of Whiskey (The Evening)
  
Exact Audio Copy V0.99 prebeta 5 from 4. May 2009

Отчёт EAC об извлечении, выполненном 1. апреля 2012, 16:59

Виктор Зинчук / Кельтский Альбом

Дисковод: _NEC DVD_RW ND-3550A Adapter: 0 ID: 0

Режим чтения : ДостоверностьИспользование точного потока : ДаОтключение кэша аудио : ДаИспользование указателей C2 : Нет

Коррекция смещения при чтении : 48Способность читать области Lead-in и Lead-out : НетЗаполнение пропущенных сэмплов тишиной : ДаУдаление блоков с тишиной в начале и конце : НетПри вычислениях CRC использовались нулевые сэмплы : ДаИнтерфейс : Установленный внешний ASPI-интерфейс

Выходной формат : Внутренние WAV-операцииФормат сэмплов : 44.100 Гц; 16 бит; стерео

TOC извлечённого CD

Трек | Старт | Длительность | Начальный сектор | Конечный сектор --------------------------------------------------------------------- 1 | 0:00.00 | 5:22.05 | 0 | 24154 2 | 5:22.05 | 3:35.11 | 24155 | 40290 3 | 8:57.16 | 4:08.09 | 40291 | 58899 4 | 13:05.25 | 3:20.12 | 58900 | 73911 5 | 16:25.37 | 2:36.05 | 73912 | 85616 6 | 19:01.42 | 4:20.00 | 85617 | 105116 7 | 23:21.42 | 7:16.27 | 105117 | 137843 8 | 30:37.69 | 2:52.02 | 137844 | 150745 9 | 33:29.71 | 3:02.02 | 150746 | 164397 10 | 36:31.73 | 4:29.01 | 164398 | 184573 11 | 41:00.74 | 3:13.04 | 184574 | 199052 12 | 44:14.03 | 3:03.73 | 199053 | 212850

Характеристики диапазона извлечения и сообщения об ошибках

Выбранный диапазон

Имя файла F:\Music lossless\Виктор Зинчук - Кельтский Альбом.wav

Пиковый уровень 100.0 % Качество диапазона 99.9 % CRC теста 2D5B474F CRC копии 2D5B474F Копирование... OK

Ошибок не произошло

AccurateRip: сводка

Трек 1 нет в базе данныхТрек 2 нет в базе данныхТрек 3 нет в базе данныхТрек 4 нет в базе данныхТрек 5 нет в базе данныхТрек 6 нет в базе данныхТрек 7 нет в базе данныхТрек 8 нет в базе данныхТрек 9 нет в базе данныхТрек 10 нет в базе данныхТрек 11 нет в базе данныхТрек 12 нет в базе данных

Ни одного трека нет в базе AccurateRip

Конец отчёта
  
Started at: вторник, 01. 05. 2012. - 9:22.201 file found

1 -===- F:\Music lossless\Виктор Зинчук - Кельтский Альбом lossless\Виктор Зинчук - Кельтский Альбом.flac Extracted successfully Conclusion: this track is CDDA with probability 99% Tempfile successfully deleted.

Finished at: вторник, 01. 05. 2012. - 9:24.32 (operation time: 0:02.11)


Трекер:  [ 07-Май-2012 07:22 ]

  

Скачать .torrent

Размер .torrent файла 18 KB


Размер: 436 MB
Хэш (hash) релиза: 79d5edb081a9528f9496f927d86c7effcf37a51c

Еще никто не оставлял запись к записи скачать торрент Виктор Зинчук - Кельтский Альбом - 2011 . Будь первым!

!Обратная связь