Скачать через торрент I Declare War - 2 Albums - 2010-2011, ALAC, lossless бесплатно русская версия torrent активатор

Если у вас наблюдаются проблемы со скриншотами, переходом по ссылками, скачиванием торрентов - проблемы в блокировщике рекламы AdBlock. #хорошегоДня!


Статистика раздачи
Размер:  568 MB   |    Зарегистрирован:  5 лет 5 месяцев   |    .torrent скачан:  30 раз   |   
Раздают:  1  
   
Загрузка...
 
Автор Сообщение

Galfimbul

avatar Galfimbul


I Declare War - 2 Albums

Год: 2010/2011
Страна: USA
Жанр: Deathcore
Продолжительность: 01:15:40
Тексты: Вшиты
Кодек: ALAC
Программа-риповщик : foobar2000 + iTunes (lossless)
Битрейт: lossless
Треклист:
01. Malevolence (01:55)
02. New Age Holocaust (02:58)
03. Federal Death Alliance (04:30)
04. Conformed to Fiction (02:45)
05. Extermination Process (04:54)
06. Damnation: Enslavement (02:19)
07. Predetermined Path (03:25)
08. Infinite Corruption (03:36)
09. Putrification of the Population (03:30)
10. Alea Iacta Est (03:41)
11. Fractions (05:21)
  
Exact Audio Copy V0.99 prebeta 5 from 4. May 2009

EAC extraction logfile from 3. December 2010, 23:23

I Declare War / Malevolence

Used drive : TSSTcorpCDDVDW SH-S223Q Adapter: 0 ID: 0

Read mode : SecureUtilize accurate stream : YesDefeat audio cache : YesMake use of C2 pointers : No

Read offset correction : 6Overread into Lead-In and Lead-Out : NoFill up missing offset samples with silence : YesDelete leading and trailing silent blocks : NoNull samples used in CRC calculations : NoUsed interface : Native Win32 interface for Win NT & 2000Gap handling : Appended to previous track

Used output format : User Defined EncoderSelected bitrate : 320 kBit/sQuality : HighAdd ID3 tag : NoCommand line compressor : C:\Program Files (x86)\Exact Audio Copy\FLAC\FLAC.EXEAdditional command line options : -V -8 -T "artist=%a" -T "title=%t" -T "album=%g" -T "date=%y" -T "tracknumber=%n" -T "genre=%m" %s

TOC of the extracted CD

Track | Start | Length | Start sector | End sector --------------------------------------------------------- 1 | 0:00.00 | 1:55.18 | 0 | 8642 2 | 1:55.18 | 2:58.04 | 8643 | 21996 3 | 4:53.22 | 4:29.71 | 21997 | 42242 4 | 9:23.18 | 2:44.63 | 42243 | 54605 5 | 12:08.06 | 4:53.54 | 54606 | 76634 6 | 17:01.60 | 2:18.44 | 76635 | 87028 7 | 19:20.29 | 3:24.70 | 87029 | 102398 8 | 22:45.24 | 3:35.40 | 102399 | 118563 9 | 26:20.64 | 3:30.34 | 118564 | 134347 10 | 29:51.23 | 3:41.09 | 134348 | 150931 11 | 33:32.32 | 5:21.14 | 150932 | 175020

Track 1

Filename D:\EACrips\I Declare War - 2010 - Malevolence [FLAC]\01 - Malevolence.wav Pre-gap length 0:00:02.00 Peak level 99.1 % Track quality 99.9 % Test CRC B95B3484 Copy CRC B95B3484 Accurately ripped (confidence 1) [BE4FD84E] Copy OK

Track 2

Filename D:\EACrips\I Declare War - 2010 - Malevolence [FLAC]\02 - New Age Holocaust.wav Peak level 100.0 % Track quality 100.0 % Test CRC A6EF8A80 Copy CRC A6EF8A80 Accurately ripped (confidence 1) [979C20E4] Copy OK

Track 3

Filename D:\EACrips\I Declare War - 2010 - Malevolence [FLAC]\03 - Federal Death Alliance.wav Peak level 99.1 % Track quality 99.9 % Test CRC 5AA397CC Copy CRC 5AA397CC Accurately ripped (confidence 1) [E2CDD192] Copy OK

Track 4

Filename D:\EACrips\I Declare War - 2010 - Malevolence [FLAC]\04 - Conformed To Fiction.wav Peak level 99.1 % Track quality 100.0 % Test CRC 294FAA7F Copy CRC 294FAA7F Accurately ripped (confidence 1) [30062FD0] Copy OK

Track 5

Filename D:\EACrips\I Declare War - 2010 - Malevolence [FLAC]\05 - Extermination Process.wav Peak level 99.1 % Track quality 100.0 % Test CRC BD6E7517 Copy CRC BD6E7517 Accurately ripped (confidence 1) [E4697939] Copy OK

Track 6

Filename D:\EACrips\I Declare War - 2010 - Malevolence [FLAC]\06 - Damnation- Enslavement.wav Peak level 99.1 % Track quality 100.0 % Test CRC 508E0A12 Copy CRC 508E0A12 Accurately ripped (confidence 1) [A1E718ED] Copy OK

Track 7

Filename D:\EACrips\I Declare War - 2010 - Malevolence [FLAC]\07 - Predetermined Path.wav Peak level 99.1 % Track quality 100.0 % Test CRC 3B981B7A Copy CRC 3B981B7A Accurately ripped (confidence 1) [20A7AEAB] Copy OK

Track 8

Filename D:\EACrips\I Declare War - 2010 - Malevolence [FLAC]\08 - Infinite Corruption.wav Peak level 99.1 % Track quality 99.9 % Test CRC CD6AA622 Copy CRC CD6AA622 Accurately ripped (confidence 1) [9FAB3A1B] Copy OK

Track 9

Filename D:\EACrips\I Declare War - 2010 - Malevolence [FLAC]\09 - Putrification Of The Population.wav Peak level 99.1 % Track quality 100.0 % Test CRC 14F28E87 Copy CRC 14F28E87 Accurately ripped (confidence 1) [A1ADAF43] Copy OK

Track 10

Filename D:\EACrips\I Declare War - 2010 - Malevolence [FLAC]\10 - Alea Iacta Est.wav Peak level 99.1 % Track quality 100.0 % Test CRC 0029344C Copy CRC 0029344C Accurately ripped (confidence 1) [BF12346E] Copy OK

Track 11

Filename D:\EACrips\I Declare War - 2010 - Malevolence [FLAC]\11 - Fractions.wav Peak level 99.1 % Track quality 100.0 % Test CRC BB1F7F0D Copy CRC BB1F7F0D Accurately ripped (confidence 1) [CC3C270A] Copy OKAll tracks accurately ripped

No errors occurred

End of status report
Треклист:
01. I, Tormentor (03:06)
02. Misery Cloud (03:25)
03. Human Waste (04:14)
04. March On (03:20)
05. The Dot (04:19)
06. Final Hour (03:57)
07. Clear Head (03:12)
08. Pale Skin (04:00)
09. Pillow Talk (03:14)
10. Weak Minds (04:00)
  
X Lossless Decoder version 20111214 (138.1)

XLD extraction logfile from 2012-01-06 23:57:21 +0000

I Declare War / I Declare War

Used drive : MATSHITA DVD-R UJ-898 (revision HC10)

Ripper mode : XLD Secure RipperDisable audio cache : OK for the drive with a cache less than 1375KiBMake use of C2 pointers : NORead offset correction : 102Max retry count : 100Gap status : Analyzed, Appended

TOC of the extracted CD Track | Start | Length | Start sector | End sector --------------------------------------------------------- 1 | 00:00:00 | 03:05:55 | 0 | 13929 2 | 03:05:55 | 03:25:00 | 13930 | 29304 3 | 06:30:55 | 04:13:69 | 29305 | 48348 4 | 10:44:49 | 03:20:25 | 48349 | 63373 5 | 14:04:74 | 04:19:06 | 63374 | 82804 6 | 18:24:05 | 03:56:50 | 82805 | 100554 7 | 22:20:55 | 03:11:68 | 100555 | 114947 8 | 25:32:48 | 03:59:54 | 114948 | 132926 9 | 29:32:27 | 03:14:15 | 132927 | 147491 10 | 32:46:42 | 04:00:11 | 147492 | 165502

AccurateRip Summary Disc not found in AccurateRip DB.

All Tracks Album gain : -10.98 dB Peak : 1.000000 Statistics Read error : 0 Jitter error (maybe fixed) : 0 Retry sector count : 0 Damaged sector count : 0

Track 01 Filename : /Users/vaughn/Desktop/I Declare War/I Declare War/01 - I, Tormentor.flac Pre-gap length : 00:02:00

Track gain : -11.83 dB Peak : 1.000000 CRC32 hash (test run) : AEE9E5EF CRC32 hash : AEE9E5EF CRC32 hash (skip zero) : 342E5AFC AccurateRip signature : 5CD4064C ->Track not present in AccurateRip database. Statistics Read error : 0 Jitter error (maybe fixed) : 0 Retry sector count : 0 Damaged sector count : 0

Track 02 Filename : /Users/vaughn/Desktop/I Declare War/I Declare War/02 - Misery Cloud.flac

Track gain : -11.12 dB Peak : 1.000000 CRC32 hash (test run) : B8695546 CRC32 hash : B8695546 CRC32 hash (skip zero) : BFCF6D98 AccurateRip signature : 7AE8C0FE ->Track not present in AccurateRip database. Statistics Read error : 0 Jitter error (maybe fixed) : 0 Retry sector count : 0 Damaged sector count : 0

Track 03 Filename : /Users/vaughn/Desktop/I Declare War/I Declare War/03 - Human Waste.flac

Track gain : -10.68 dB Peak : 1.000000 CRC32 hash (test run) : 9EF5CABD CRC32 hash : 9EF5CABD CRC32 hash (skip zero) : 77DA1DE9 AccurateRip signature : C533B5EF ->Track not present in AccurateRip database. Statistics Read error : 0 Jitter error (maybe fixed) : 0 Retry sector count : 0 Damaged sector count : 0

Track 04 Filename : /Users/vaughn/Desktop/I Declare War/I Declare War/04 - March On.flac

Track gain : -11.03 dB Peak : 1.000000 CRC32 hash (test run) : F4763C43 CRC32 hash : F4763C43 CRC32 hash (skip zero) : 45820424 AccurateRip signature : 64C3447C ->Track not present in AccurateRip database. Statistics Read error : 0 Jitter error (maybe fixed) : 0 Retry sector count : 0 Damaged sector count : 0

Track 05 Filename : /Users/vaughn/Desktop/I Declare War/I Declare War/05 - The Dot.flac

Track gain : -10.26 dB Peak : 1.000000 CRC32 hash (test run) : CBA053F6 CRC32 hash : CBA053F6 CRC32 hash (skip zero) : FCC60EF5 AccurateRip signature : CE051CB4 ->Track not present in AccurateRip database. Statistics Read error : 0 Jitter error (maybe fixed) : 0 Retry sector count : 0 Damaged sector count : 0

Track 06 Filename : /Users/vaughn/Desktop/I Declare War/I Declare War/06 - Final Hour.flac

Track gain : -12.04 dB Peak : 1.000000 CRC32 hash (test run) : 40F215E4 CRC32 hash : 40F215E4 CRC32 hash (skip zero) : ED6B7BCA AccurateRip signature : 718AA997 ->Track not present in AccurateRip database. Statistics Read error : 0 Jitter error (maybe fixed) : 0 Retry sector count : 0 Damaged sector count : 0

Track 07 Filename : /Users/vaughn/Desktop/I Declare War/I Declare War/07 - Clear Head.flac

Track gain : -10.87 dB Peak : 1.000000 CRC32 hash (test run) : 4C44EF1F CRC32 hash : 4C44EF1F CRC32 hash (skip zero) : 36BF57AF AccurateRip signature : 259B3B4F ->Track not present in AccurateRip database. Statistics Read error : 0 Jitter error (maybe fixed) : 0 Retry sector count : 0 Damaged sector count : 0

Track 08 Filename : /Users/vaughn/Desktop/I Declare War/I Declare War/08 - Pale Skin.flac

Track gain : -10.28 dB Peak : 1.000000 CRC32 hash (test run) : 1FED333E CRC32 hash : 1FED333E CRC32 hash (skip zero) : F5108333 AccurateRip signature : A51818EB ->Track not present in AccurateRip database. Statistics Read error : 0 Jitter error (maybe fixed) : 0 Retry sector count : 0 Damaged sector count : 0

Track 09 Filename : /Users/vaughn/Desktop/I Declare War/I Declare War/09 - Pillow Talk.flac

Track gain : -10.43 dB Peak : 1.000000 CRC32 hash (test run) : CC9F79DF CRC32 hash : CC9F79DF CRC32 hash (skip zero) : 3C05A8E1 AccurateRip signature : 270DBEAF ->Track not present in AccurateRip database. Statistics Read error : 0 Jitter error (maybe fixed) : 0 Retry sector count : 0 Damaged sector count : 0

Track 10 Filename : /Users/vaughn/Desktop/I Declare War/I Declare War/10 - Weak Minds.flac

Track gain : -10.40 dB Peak : 1.000000 CRC32 hash (test run) : F2BC5C82 CRC32 hash : F2BC5C82 CRC32 hash (skip zero) : F16826DC AccurateRip signature : CDDC0E5A ->Track not present in AccurateRip database. Statistics Read error : 0 Jitter error (maybe fixed) : 0 Retry sector count : 0 Damaged sector count : 0

No errors occurred

End of status report


Трекер:  [ 07-Май-2012 07:35 ]

  

Скачать .torrent

Размер .torrent файла 3 KB


Размер: 568 MB
Хэш (hash) релиза: a00058b04d2d5d9c6eb5ec8617f446663314aff7

Еще никто не оставлял запись к записи скачать торрент I Declare War - 2 Albums - 2010-2011, ALAC, lossless . Будь первым!

!Обратная связь