Скачать через торрент Хиты планеты. Шедевры классики - 2012 бесплатно русская версия torrent активатор

Если у вас наблюдаются проблемы со скриншотами, переходом по ссылками, скачиванием торрентов - проблемы в блокировщике рекламы AdBlock. #хорошегоДня!


Статистика раздачи
Размер:  585 MB   |    Зарегистрирован:  5 лет 5 месяцев   |    .torrent скачан:  61 раз   |   
Раздают:  1  
   
Загрузка...
 
Автор Сообщение

Galfimbul

avatar Galfimbul


Хиты планеты. Шедевры классики

Год: 2012
Страна: Various
Страна-производитель диска: Беларусь
Жанр: Classical
Тип издания: сборник
Издатель (лейбл): ВИГМА
Номер по каталогу: 3043
Наличие сканов в содержимом раздачи: да
Продолжительность: 01:18:44
Тексты: не требуются
Кодек: ALAC
Программа-риповщик : foobar2000 + iTunes (lossless)
Битрейт: lossless
Источник: Собственный CD
Треклист:
01. Бах. Токката
02. Моцарт. Турецкий марш
03. Вивальди. Времена года - Осень
04. Бетховен. Лунная соната
05. Шуберт. Аве Мария
06. Паганини. Капричио
07. Чайковский. Вальс цветов
08. Бизе. Сюита №1
09. Мендельсон. Свадебный марш
10. Огинский. Полонез "Прощание с Родиной"
11. Брамс. Венгерский танец
12. Моцарт. Маленькая ночная серенада
13. Бетховен. К Элизе
14. Бах. Сюита №2
15. Чайковский. Танец маленьких лебедей
16. Бетховен. Симфония №5
17. Бизе. Кармен
18. Хачатурян. Танец с саблями
19. Паганини. Концерт №2
20. Моцарт. Симфония №40
  
Exact Audio Copy V0.99 prebeta 5 from 4. May 2009

Отчёт EAC об извлечении, выполненном 29. апреля 2012, 18:45

Various / Хиты планеты: Шедевры классики

Дисковод: _NEC DVD_RW ND-3550A Adapter: 0 ID: 0

Режим чтения : ДостоверностьИспользование точного потока : ДаОтключение кэша аудио : ДаИспользование указателей C2 : Нет

Коррекция смещения при чтении : 48Способность читать области Lead-in и Lead-out : НетЗаполнение пропущенных сэмплов тишиной : ДаУдаление блоков с тишиной в начале и конце : НетПри вычислениях CRC использовались нулевые сэмплы : ДаИнтерфейс : Установленный внешний ASPI-интерфейс

Выходной формат : Внутренние WAV-операцииФормат сэмплов : 44.100 Гц; 16 бит; стерео

TOC извлечённого CD

Трек | Старт | Длительность | Начальный сектор | Конечный сектор --------------------------------------------------------------------- 1 | 0:00.00 | 2:24.00 | 0 | 10799 2 | 2:24.00 | 3:30.45 | 10800 | 26594 3 | 5:54.45 | 3:32.57 | 26595 | 42551 4 | 9:27.27 | 5:34.60 | 42552 | 67661 5 | 15:02.12 | 4:42.45 | 67662 | 88856 6 | 19:44.57 | 4:49.06 | 88857 | 110537 7 | 24:33.63 | 6:43.15 | 110538 | 140777 8 | 31:17.03 | 2:09.45 | 140778 | 150497 9 | 33:26.48 | 4:46.15 | 150498 | 171962 10 | 38:12.63 | 2:58.15 | 171963 | 185327 11 | 41:11.03 | 2:18.45 | 185328 | 195722 12 | 43:29.48 | 5:33.54 | 195723 | 220751 13 | 49:03.27 | 3:15.63 | 220752 | 235439 14 | 52:19.15 | 1:20.21 | 235440 | 241460 15 | 53:39.36 | 1:28.42 | 241461 | 248102 16 | 55:08.03 | 7:48.54 | 248103 | 283256 17 | 62:56.57 | 2:05.21 | 283257 | 292652 18 | 65:02.03 | 2:20.57 | 292653 | 303209 19 | 67:22.60 | 5:02.03 | 303210 | 325862 20 | 72:24.63 | 6:19.59 | 325863 | 354346

Характеристики диапазона извлечения и сообщения об ошибках

Выбранный диапазон

Имя файла F:\Music lossless\Various - Хиты планеты. Шедевры классики.wav

Пиковый уровень 100.0 % Качество диапазона 99.9 % CRC теста A12D45AB CRC копии A12D45AB Копирование... OK

Ошибок не произошло

AccurateRip: сводка

Трек 1 точность не определена (достоверность 1) [3FC510D6], AccurateRip вернул [9814B45F]Трек 2 точность не определена (достоверность 1) [01800BE2], AccurateRip вернул [265339DB]Трек 3 точность не определена (достоверность 1) [107F4B1B], AccurateRip вернул [550F082D]Трек 4 точность не определена (достоверность 1) [F77F505C], AccurateRip вернул [5F4E703F]Трек 5 точность не определена (достоверность 1) [2BCE8B39], AccurateRip вернул [D2301E26]Трек 6 точность не определена (достоверность 1) [506E0C63], AccurateRip вернул [28778371]Трек 7 точность не определена (достоверность 1) [A2875E86], AccurateRip вернул [86309F8C]Трек 8 точность не определена (достоверность 1) [4EF8FFF3], AccurateRip вернул [261DA6CF]Трек 9 точность не определена (достоверность 1) [A627610C], AccurateRip вернул [11386CB2]Трек 10 точность не определена (достоверность 1) [B5F39B6C], AccurateRip вернул [220443D4]Трек 11 точность не определена (достоверность 1) [E26FCFB6], AccurateRip вернул [FD44E061]Трек 12 точность не определена (достоверность 1) [27BA9CC8], AccurateRip вернул [627F3EC8]Трек 13 точность не определена (достоверность 1) [8E85F249], AccurateRip вернул [F34CF4B3]Трек 14 точность не определена (достоверность 1) [AF72AC32], AccurateRip вернул [C0D5BE97]Трек 15 точность не определена (достоверность 1) [E654E2B2], AccurateRip вернул [D4E1DC5D]Трек 16 точность не определена (достоверность 1) [D493E926], AccurateRip вернул [E8D31692]Трек 17 точность не определена (достоверность 1) [B468A148], AccurateRip вернул [0D4E74F1]Трек 18 точность не определена (достоверность 1) [0BDA71A1], AccurateRip вернул [1D542CBB]Трек 19 точность не определена (достоверность 1) [78BA4C08], AccurateRip вернул [974448DF]Трек 20 точность не определена (достоверность 1) [1B3F4363], AccurateRip вернул [443B1DBB]

Ни один трек не прошёл проверки на точностьВ вашей базе может быть иной вариант штамповки диска

Конец отчёта
  
Started at: вторник, 01. 05. 2012. - 14:16.401 file found

1 -===- F:\Music lossless\Хиты планеты. Шедевры классики lossless\Various - Хиты планеты. Шедевры классики.flac Extracted successfully Conclusion: this track is CDDA with probability 100% Tempfile successfully deleted.

Finished at: вторник, 01. 05. 2012. - 14:23.02 (operation time: 0:06.21)


Трекер:  [ 07-Май-2012 07:35 ]

  

Скачать .torrent

Размер .torrent файла 13 KB


Размер: 585 MB
Хэш (hash) релиза: a0c699965c7550acb0fb9bb7dafa630a0e25795f

Еще никто не оставлял запись к записи скачать торрент Хиты планеты. Шедевры классики - 2012 . Будь первым!

!Обратная связь