Скачать через торрент VA - Нацыянальная музычная прэмія 2011 - 2012 бесплатно русская версия torrent активатор

Если у вас наблюдаются проблемы со скриншотами, переходом по ссылками, скачиванием торрентов - проблемы в блокировщике рекламы AdBlock. #хорошегоДня!


Статистика раздачи
Размер:  704 MB   |    Зарегистрирован:  5 лет 5 месяцев   |    .torrent скачан:  31 раз   |   
Раздают:  1  
   
Загрузка...
 
Автор Сообщение

Galfimbul

avatar Galfimbul


VA - Нацыянальная музычная прэмія 2011

Год: 2012
Страна: Беларусь
Страна-производитель диска: Беларусь
Жанр: Rock/Folk/Pop
Тип издания: сборник
Издатель (лейбл): ВИГМА
Номер по каталогу: 3229
Наличие сканов в содержимом раздачи: да
Продолжительность: 01:13:44
Тексты: отсутствуют
Кодек: ALAC
Программа-риповщик : foobar2000 + iTunes (lossless)
Битрейт: lossless
Треклист:
01. Дмитрий Колдун - Корабли
02. Инна Афанасьева - Смотри
03. Алексей Хлестов - Небо в осколках
04. TEO - I'll Meet You
05. DaVinci - Jokero
06. Леся Кодуш и Слава Нагорный - Твоя любовь
07. Алена Ланская - Белая ластаўка
08. Анна Хитрик и группа 'S'unduk' - Там-там
09. Ядвига Паплавская и Александр Тиханович - Малиновки заслыша голосок
10. Litesound - See You In Vegas
11. Дядя Ваня и 'Топлесс' - Паинька
12. J:Морс - Дзесьці
13. Ирина Видова - В последний раз
14. Лидия Заблоцкая - Ангелы добра
15. Венера - Мальчик Барби
16. ProSSpekt - Альфа и омега
17. Вадим Галыгин и Илья Митько - Только ты
18. Саша НЕМО - Магистраль
19. Этно-трио ТРОИЦА - Дабранач
  
Exact Audio Copy V0.99 prebeta 5 from 4. May 2009

Отчёт EAC об извлечении, выполненном 1. мая 2012, 12:24

Various / Нацыянальная музычная прэмія 2011

Дисковод: _NEC DVD_RW ND-3550A Adapter: 0 ID: 0

Режим чтения : ДостоверностьИспользование точного потока : ДаОтключение кэша аудио : ДаИспользование указателей C2 : Нет

Коррекция смещения при чтении : 48Способность читать области Lead-in и Lead-out : НетЗаполнение пропущенных сэмплов тишиной : ДаУдаление блоков с тишиной в начале и конце : НетПри вычислениях CRC использовались нулевые сэмплы : ДаИнтерфейс : Установленный внешний ASPI-интерфейс

Выходной формат : Внутренние WAV-операцииФормат сэмплов : 44.100 Гц; 16 бит; стерео

TOC извлечённого CD

Трек | Старт | Длительность | Начальный сектор | Конечный сектор --------------------------------------------------------------------- 1 | 0:00.00 | 3:44.37 | 0 | 16836 2 | 3:44.37 | 2:57.30 | 16837 | 30141 3 | 6:41.67 | 3:24.56 | 30142 | 45497 4 | 10:06.48 | 3:30.09 | 45498 | 61256 5 | 13:36.57 | 3:22.57 | 61257 | 76463 6 | 16:59.39 | 4:08.62 | 76464 | 95125 7 | 21:08.26 | 3:50.22 | 95126 | 112397 8 | 24:58.48 | 4:17.15 | 112398 | 131687 9 | 29:15.63 | 2:27.46 | 131688 | 142758 10 | 31:43.34 | 4:58.68 | 142759 | 165176 11 | 36:42.27 | 3:19.65 | 165177 | 180166 12 | 40:02.17 | 3:21.52 | 180167 | 195293 13 | 43:23.69 | 4:38.62 | 195294 | 216205 14 | 48:02.56 | 2:46.38 | 216206 | 228693 15 | 50:49.19 | 3:03.55 | 228694 | 242473 16 | 53:52.74 | 3:49.55 | 242474 | 259703 17 | 57:42.54 | 4:48.52 | 259704 | 281355 18 | 62:31.31 | 3:27.39 | 281356 | 296919 19 | 65:58.70 | 7:45.20 | 296920 | 331814

Характеристики диапазона извлечения и сообщения об ошибках

Выбранный диапазон

Имя файла F:\Music lossless\Various - Нацыянальная музычная прэмія 2011.wav

Пиковый уровень 100.0 % Качество диапазона 99.9 % CRC теста BD98FF5C CRC копии BD98FF5C Копирование... OK

Ошибок не произошло

AccurateRip: сводка

Трек 1 нет в базе данныхТрек 2 нет в базе данныхТрек 3 нет в базе данныхТрек 4 нет в базе данныхТрек 5 нет в базе данныхТрек 6 нет в базе данныхТрек 7 нет в базе данныхТрек 8 нет в базе данныхТрек 9 нет в базе данныхТрек 10 нет в базе данныхТрек 11 нет в базе данныхТрек 12 нет в базе данныхТрек 13 нет в базе данныхТрек 14 нет в базе данныхТрек 15 нет в базе данныхТрек 16 нет в базе данныхТрек 17 нет в базе данныхТрек 18 нет в базе данныхТрек 19 нет в базе данных

Ни одного трека нет в базе AccurateRip

Конец отчёта
  
Started at: вторник, 01. 05. 2012. - 14:25.051 file found

1 -===- F:\Music lossless\1\Нацыянальная музычная прэмія 2011 lossless\Various - Нацыянальная музычная прэмія 2011.flac Extracted successfully Conclusion: this track is CDDA with probability 100% Tempfile successfully deleted.

Finished at: вторник, 01. 05. 2012. - 14:30.27 (operation time: 0:05.22)



Трекер:  [ 07-Май-2012 07:35 ]

  

Скачать .torrent

Размер .torrent файла 15 KB


Размер: 704 MB
Хэш (hash) релиза: 64f72f109c95338845e145c2af86eabecce76c81

Еще никто не оставлял запись к записи скачать торрент VA - Нацыянальная музычная прэмія 2011 - 2012 . Будь первым!

!Обратная связь