Скачать через торрент Keane - Strangeland - 2012 бесплатно русская версия torrent активатор

Если у вас наблюдаются проблемы со скриншотами, переходом по ссылками, скачиванием торрентов - проблемы в блокировщике рекламы AdBlock. #хорошегоДня!


Статистика раздачи
Размер:  308 MB   |    Зарегистрирован:  5 лет 5 месяцев   |    .torrent скачан:  44 раза   |   
Раздают:  1  
   
Загрузка...
 
Автор Сообщение

Galfimbul

avatar Galfimbul


Keane - Strangeland



Год: 2012
Страна: United Kingdom
Страна-производитель диска: USA
Жанр: Pop Rock
Тип издания: Pre-release
Издатель (лейбл): Cherrytree Records
Номер по каталогу: B0016739-02
Наличие сканов в содержимом раздачи: нет
Продолжительность: 45:18.920
Обложки: вшиты
Тексты: вшиты
Кодек: ALAC
Программа-риповщик : CUETools + Refalac (x64) (lossless)
Битрейт: lossless

Доп. информация: альбом предоставлен только для ознакомительного прослушивания.

Треклист:
01 You Are Young (3:35)
02 Silenced By The Night (3:16)
03 Disconnected (3:58)
04 Watch How You Go (3:40)
05 Sovereign Light Cafe (3:39)
06 On The Road (3:57)
07 The Starting Line (4:12)
08 Black Rain (3:47)
09 Neon River (5:53)
10 Day Will Come (3:12)
11 In Your Own Time (3:33)
12 Sea Fog (3:26)

  
REM ACCURATERIPID 001419ef-00bcca85-950a9e0cREM GENRE "Pop Rock"REM DATE 2012-05-07REM DISCID 950A9E0CREM COMMENT "XLD"PERFORMER "Keane"TITLE "Strangeland"CATALOG 602527992808REM DISCNUMBER 1REM TOTALDISCS 1FILE "01 You Are Young.m4a" WAVE TRACK 01 AUDIO TITLE "You Are Young" PERFORMER "Keane" INDEX 01 00:00:00FILE "02 Silenced by the Night.m4a" WAVE TRACK 02 AUDIO TITLE "Silenced by the Night" PERFORMER "Keane" INDEX 01 00:00:00FILE "03 Disconnected.m4a" WAVE TRACK 03 AUDIO TITLE "Disconnected" PERFORMER "Keane" INDEX 01 00:00:00FILE "04 Watch How You Go.m4a" WAVE TRACK 04 AUDIO TITLE "Watch How You Go" PERFORMER "Keane" INDEX 01 00:00:00FILE "05 Sovereign Light Cafe.m4a" WAVE TRACK 05 AUDIO TITLE "Sovereign Light Cafe" PERFORMER "Keane" INDEX 01 00:00:00 TRACK 06 AUDIO TITLE "On the Road" PERFORMER "Keane" INDEX 00 03:37:40FILE "06 On the Road.m4a" WAVE INDEX 01 00:00:00 TRACK 07 AUDIO TITLE "The Starting Line" PERFORMER "Keane" INDEX 00 03:54:10FILE "07 The Starting Line.m4a" WAVE INDEX 01 00:00:00FILE "08 Black Rain.m4a" WAVE TRACK 08 AUDIO TITLE "Black Rain" PERFORMER "Keane" INDEX 01 00:00:00 TRACK 09 AUDIO TITLE "Neon River" PERFORMER "Keane" INDEX 00 03:45:63FILE "09 Neon River.m4a" WAVE INDEX 01 00:00:00 TRACK 10 AUDIO TITLE "Day Will Come" PERFORMER "Keane" INDEX 00 04:51:41FILE "10 Day Will Come.m4a" WAVE INDEX 01 00:00:00 TRACK 11 AUDIO TITLE "In Your Own Time" PERFORMER "Keane" INDEX 00 03:10:48FILE "11 In Your Own Time.m4a" WAVE INDEX 01 00:00:00FILE "12 Sea Fog.m4a" WAVE TRACK 12 AUDIO TITLE "Sea Fog" PERFORMER "Keane" INDEX 01 00:00:00
  
X Lossless Decoder version 20120407 (140.0)

XLD extraction logfile from 2012-04-28 23:07:55 +0000

Keane / Strangeland

Used drive : MATSHITA DVD-R UJ-857R (revision HR01)

Ripper mode : XLD Secure RipperDisable audio cache : OK for the drive with a cache less than 1375KiBMake use of C2 pointers : NORead offset correction : 102Max retry count : 20Gap status : Analyzed, Appended

TOC of the extracted CD Track | Start | Length | Start sector | End sector --------------------------------------------------------- 1 | 00:00:00 | 03:35:37 | 0 | 16161 2 | 03:35:37 | 03:16:35 | 16162 | 30896 3 | 06:51:72 | 03:57:67 | 30897 | 48738 4 | 10:49:64 | 03:40:29 | 48739 | 65267 5 | 14:30:18 | 03:38:63 | 65268 | 81680 6 | 18:09:06 | 03:56:55 | 81681 | 99435 7 | 22:05:61 | 04:12:25 | 99436 | 118360 8 | 26:18:11 | 03:46:42 | 118361 | 135352 9 | 30:04:53 | 04:52:71 | 135353 | 157323 10 | 34:57:49 | 03:11:68 | 157324 | 171716 11 | 38:09:42 | 03:43:60 | 171717 | 188501 12 | 41:53:27 | 03:25:42 | 188502 | 203918

AccurateRip Summary Disc not found in AccurateRip DB.

All Tracks Album gain : -8.77 dB Peak : 0.995483 Statistics Read error : 0 Jitter error (maybe fixed) : 0 Retry sector count : 0 Damaged sector count : 0

Track 01 Filename : /Users/scot/Downloads/Keane - Strangeland (2012) [FLAC]/01 You Are Young.flac Pre-gap length : 00:02:00

Track gain : -8.12 dB Peak : 0.989349 CRC32 hash (test run) : 7AC65448 CRC32 hash : 7AC65448 CRC32 hash (skip zero) : 7119B423 AccurateRip signature : 6FE57CDA ->Track not present in AccurateRip database. Statistics Read error : 0 Jitter error (maybe fixed) : 0 Retry sector count : 0 Damaged sector count : 0

Track 02 Filename : /Users/scot/Downloads/Keane - Strangeland (2012) [FLAC]/02 Silenced by the Night.flac

Track gain : -9.15 dB Peak : 0.995483 CRC32 hash (test run) : 9D5857CE CRC32 hash : 9D5857CE CRC32 hash (skip zero) : C1E4FBF0 AccurateRip signature : CF35F196 ->Track not present in AccurateRip database. Statistics Read error : 0 Jitter error (maybe fixed) : 0 Retry sector count : 0 Damaged sector count : 0

Track 03 Filename : /Users/scot/Downloads/Keane - Strangeland (2012) [FLAC]/03 Disconnected.flac

Track gain : -8.98 dB Peak : 0.990845 CRC32 hash (test run) : 0F1F0B21 CRC32 hash : 0F1F0B21 CRC32 hash (skip zero) : 5DB65171 AccurateRip signature : 0EBFB47C ->Track not present in AccurateRip database. Statistics Read error : 0 Jitter error (maybe fixed) : 0 Retry sector count : 0 Damaged sector count : 0

Track 04 Filename : /Users/scot/Downloads/Keane - Strangeland (2012) [FLAC]/04 Watch How You Go.flac

Track gain : -7.64 dB Peak : 0.989075 CRC32 hash (test run) : C69A8D1E CRC32 hash : C69A8D1E CRC32 hash (skip zero) : 9C06BEA6 AccurateRip signature : 52BFEAD2 ->Track not present in AccurateRip database. Statistics Read error : 0 Jitter error (maybe fixed) : 0 Retry sector count : 0 Damaged sector count : 0

Track 05 Filename : /Users/scot/Downloads/Keane - Strangeland (2012) [FLAC]/05 Sovereign Light Cafe.flac

Track gain : -8.31 dB Peak : 0.991547 CRC32 hash (test run) : 47FC8D82 CRC32 hash : 47FC8D82 CRC32 hash (skip zero) : F8065E36 AccurateRip signature : 5CF2C72B ->Track not present in AccurateRip database. Statistics Read error : 0 Jitter error (maybe fixed) : 0 Retry sector count : 0 Damaged sector count : 0

Track 06 Filename : /Users/scot/Downloads/Keane - Strangeland (2012) [FLAC]/06 On the Road.flac Pre-gap length : 00:01:23

Track gain : -8.80 dB Peak : 0.989716 CRC32 hash (test run) : 1D7B3CC1 CRC32 hash : 1D7B3CC1 CRC32 hash (skip zero) : E638B417 AccurateRip signature : 88661EB1 ->Track not present in AccurateRip database. Statistics Read error : 0 Jitter error (maybe fixed) : 0 Retry sector count : 0 Damaged sector count : 0

Track 07 Filename : /Users/scot/Downloads/Keane - Strangeland (2012) [FLAC]/07 The Starting Line.flac Pre-gap length : 00:02:45

Track gain : -9.21 dB Peak : 0.989105 CRC32 hash (test run) : CE914516 CRC32 hash : CE914516 CRC32 hash (skip zero) : 58C39C0C AccurateRip signature : 047D0C29 ->Track not present in AccurateRip database. Statistics Read error : 0 Jitter error (maybe fixed) : 0 Retry sector count : 0 Damaged sector count : 0

Track 08 Filename : /Users/scot/Downloads/Keane - Strangeland (2012) [FLAC]/08 Black Rain.flac

Track gain : -7.50 dB Peak : 0.988800 CRC32 hash (test run) : CC047917 CRC32 hash : CC047917 CRC32 hash (skip zero) : E012BC94 AccurateRip signature : 2C6CEFFD ->Track not present in AccurateRip database. Statistics Read error : 0 Jitter error (maybe fixed) : 0 Retry sector count : 0 Damaged sector count : 0

Track 09 Filename : /Users/scot/Downloads/Keane - Strangeland (2012) [FLAC]/09 Neon River.flac Pre-gap length : 00:00:54

Track gain : -8.28 dB Peak : 0.989105 CRC32 hash (test run) : CA879346 CRC32 hash : CA879346 CRC32 hash (skip zero) : CEC0F6B8 AccurateRip signature : 7B9BC133 ->Track not present in AccurateRip database. Statistics Read error : 0 Jitter error (maybe fixed) : 0 Retry sector count : 0 Damaged sector count : 0

Track 10 Filename : /Users/scot/Downloads/Keane - Strangeland (2012) [FLAC]/10 Day Will Come.flac Pre-gap length : 00:01:30

Track gain : -9.11 dB Peak : 0.989838 CRC32 hash (test run) : F210B534 CRC32 hash : F210B534 CRC32 hash (skip zero) : 1AAAC580 AccurateRip signature : 36664D63 ->Track not present in AccurateRip database. Statistics Read error : 0 Jitter error (maybe fixed) : 0 Retry sector count : 0 Damaged sector count : 0

Track 11 Filename : /Users/scot/Downloads/Keane - Strangeland (2012) [FLAC]/11 In Your Own Time.flac Pre-gap length : 00:01:20

Track gain : -9.18 dB Peak : 0.988861 CRC32 hash (test run) : 501DC01C CRC32 hash : 501DC01C CRC32 hash (skip zero) : 65D015BD AccurateRip signature : DBC642C1 ->Track not present in AccurateRip database. Statistics Read error : 0 Jitter error (maybe fixed) : 0 Retry sector count : 0 Damaged sector count : 0

Track 12 Filename : /Users/scot/Downloads/Keane - Strangeland (2012) [FLAC]/12 Sea Fog.flac

Track gain : -7.04 dB Peak : 0.988708 CRC32 hash (test run) : C0BCAA7B CRC32 hash : C0BCAA7B CRC32 hash (skip zero) : 0FE4FF5C AccurateRip signature : 57B5BB3F ->Track not present in AccurateRip database. Statistics Read error : 0 Jitter error (maybe fixed) : 0 Retry sector count : 0 Damaged sector count : 0

No errors occurred

End of status report
  
-----------------------

DON'T MODIFY THIS FILE

-----------------------

PERFORMER: auCDtect Task Manager, ver. 1.5.1RC6 build 1.5.1.7Copyright (c) 2008-2010 y-soft. All rights reservedhttp://y-soft.org

ANALYZER: auCDtect: CD records authenticity detector, version 0.8.2Copyright (c) 2004 Oleg Berngardt. All rights reserved.Copyright (c) 2004 Alexander Djourik. All rights reserved.

FILE: 12 Sea Fog.m4a Size: 19163315 Hash: 5ACB897609FF91690E6A269F5AC1D7F0 Accuracy: -m0 Conclusion: CDDA 100% Signature: ED0BD5DDDE71A6765E63C1B2BC1DFEE31F715108FILE: 11 In Your Own Time.m4a Size: 26857043 Hash: EA2FBF029EBA4D1E7CF26989A756397A Accuracy: -m0 Conclusion: CDDA 100% Signature: BFB88E8D1550F1532A59235ECE46654CBC39FADCFILE: 10 Day Will Come.m4a Size: 26117904 Hash: 2C567BD330EFD5E870EA2B945E3076E1 Accuracy: -m0 Conclusion: CDDA 99% Signature: D397E35F9252B18703698F85A1006A8469163FBEFILE: 09 Neon River.m4a Size: 33263525 Hash: 74803B48F18CB7195048E047407ADFDE Accuracy: -m0 Conclusion: CDDA 100% Signature: 044D9F4AEB5F90FEEA91C41CD56D159FDB5E67E7FILE: 08 Black Rain.m4a Size: 22735628 Hash: DD52F2FE9E9C6E075CC24DA47202FCE0 Accuracy: -m0 Conclusion: CDDA 100% Signature: 76C1B407A15B7727F611EB40D2020CF310292B9BFILE: 07 The Starting Line.m4a Size: 28855914 Hash: 3F7547A9B58A3B22E2727CFFDCD77C2A Accuracy: -m0 Conclusion: CDDA 100% Signature: 992321767776B3398E5DF50A7FD5C5AFBCB70A5AFILE: 06 On the Road.m4a Size: 30371421 Hash: 1C5FD9D30FB1C997086543B771C62A4E Accuracy: -m0 Conclusion: CDDA 100% Signature: A1EA8F7578F239546E084ECA37C3B20424939D25FILE: 05 Sovereign Light Cafe.m4a Size: 28358221 Hash: B6B445C3CFC375C0DD5FA8518F7FCC87 Accuracy: -m0 Conclusion: CDDA 100% Signature: CFF2E5BC2D5DA9199B78DFC081CD27CEE25FE9CAFILE: 04 Watch How You Go.m4a Size: 23961853 Hash: 9EF4764F56418BC1EDFC49EFD20FFFE0 Accuracy: -m0 Conclusion: CDDA 100% Signature: 8AF22A2440CB470A2C8045DAF06644397DCFFC94FILE: 03 Disconnected.m4a Size: 29543091 Hash: 35379C92B64918FFBF4642ED4E9D8E04 Accuracy: -m0 Conclusion: CDDA 100% Signature: F712E8D05F54F14BD05C1F5FB45358BEF7F61193FILE: 02 Silenced by the Night.m4a Size: 25481392 Hash: FB7AFB597CCF84828D8BA33C7DA3101F Accuracy: -m0 Conclusion: CDDA 100% Signature: D0B33CE03BE47252AA808F9A66EAE084EC9D3064FILE: 01 You Are Young.m4a Size: 26702695 Hash: 138DA62E58932AFBE97E9F9C9995ADD7 Accuracy: -m0 Conclusion: CDDA 100% Signature: 12BA2846F6B30A0B4A4F2DFF78AB7FD8AFB5755D


Трекер:  [ 07-Май-2012 07:36 ]

  

Скачать .torrent

Размер .torrent файла 14 KB


Размер: 308 MB
Хэш (hash) релиза: 7cf4beb62aed20e0a53ae0a7a30c1f7a4e29e49b

Торренты, похожие на Keane - Strangeland - 2012 скачать торрент

Форум Название Автор Размер S L Добавлен
Apple Mobile Device Software ·· (Pop Rock, Piano Rock) Keane - Strangeland (Deluxe Edition) - 2012 ALAC, lossless L 416992632398 MB 0 0 1336754640

19:44

11-Май-12

Apple Mobile Device Software ·· (Alternative) Keane - Strangeland (Deluxe Version) (Tim Rice-Oxley, Tom Chaplin, Richard Hughes, etc.) - 2012, AAC (tracks) [WEB], 256 kbps [+Video, WEB-DL, 480p] L 443918248423 MB 0 0 1336482540

16:09

8-Май-12

Еще никто не оставлял запись к записи скачать торрент Keane - Strangeland - 2012 . Будь первым!

!Обратная связь