Скачать через торрент Beach House - Bloom - 2012 ALAC, lossless бесплатно русская версия torrent активатор

Если у вас наблюдаются проблемы со скриншотами, переходом по ссылками, скачиванием торрентов - проблемы в блокировщике рекламы AdBlock. #хорошегоДня!


Статистика раздачи
Размер:  360 MB   |    Зарегистрирован:  5 лет 5 месяцев   |    .torrent скачан:  40 раз   |   
Раздают:  1  
   
Загрузка...
 
Автор Сообщение

Galfimbul

avatar Galfimbul


Beach House - Bloom

Год: 2012
Страна: US
Жанр: Indie, Dream Pop
Издатель (лейбл): Sub Pop
Продолжительность: 1:00:27
Тексты: отсутствуют
Кодек: ALAC
Программа-риповщик : foobar2000 + iTunes (lossless)
Битрейт: lossless
Треклист:
01. Myth
02. Wild
03. Lazuli
04. Other People
05. The Hours
06. Troublemaker
07. New Year
08. Wishes
09. On the Sea
10. Irene
  
Exact Audio Copy V1.0 beta 3 from 29. August 2011

EAC extraction logfile from 29. April 2012, 19:46

Beach House / Bloom

Used drive : TSSTcorpCDDVDW TS-L633W Adapter: 0 ID: 1

Read mode : SecureUtilize accurate stream : YesDefeat audio cache : YesMake use of C2 pointers : No

Read offset correction : 6Overread into Lead-In and Lead-Out : NoFill up missing offset samples with silence : YesDelete leading and trailing silent blocks : NoNull samples used in CRC calculations : YesUsed interface : Native Win32 interface for Win NT & 2000Gap handling : Appended to previous track

Used output format : User Defined EncoderSelected bitrate : 1024 kBit/sQuality : HighAdd ID3 tag : NoCommand line compressor : C:\Program Files (x86)\Exact Audio Copy\Flac\flac.exeAdditional command line options : -8 -V -T "ARTIST=%artist%" -T "TITLE=%title%" -T "ALBUM=%albumtitle%" -T "DATE=%year%" -T "TRACKNUMBER=%tracknr%" -T "GENRE=%genre%" -T "PERFORMER=%albuminterpret%" -T "COMPOSER=%composer%" %haslyrics%--tag-from-file=LYRICS="%lyricsfile%"%haslyrics% -T "ALBUMARTIST=%albumartist%" -T "DISCNUMBER=%cdnumber%" -T "TOTALDISCS=%totalcds%" -T "TOTALTRACKS=%numtracks%" -T "COMMENT=%comment%" %source% -o %dest%

TOC of the extracted CD

Track | Start | Length | Start sector | End sector --------------------------------------------------------- 1 | 0:00.00 | 4:18.49 | 0 | 19398 2 | 4:18.49 | 4:58.24 | 19399 | 41772 3 | 9:16.73 | 5:01.65 | 41773 | 64412 4 | 14:18.63 | 4:24.47 | 64413 | 84259 5 | 18:43.35 | 4:11.54 | 84260 | 103138 6 | 22:55.14 | 4:55.41 | 103139 | 125304 7 | 27:50.55 | 5:25.57 | 125305 | 149736 8 | 33:16.37 | 4:46.72 | 149737 | 171258 9 | 38:03.34 | 5:32.35 | 171259 | 196193 10 | 43:35.69 | 16:57.01 | 196194 | 272469

Track 1

Filename C:\Beach House - Bloom (2012) [FLAC]\01 - Myth.wav

Pre-gap length 0:00:02.00

Peak level 96.6 % Extraction speed 1.0 X Track quality 99.9 % Test CRC 51A299A7 Copy CRC 51A299A7 Track not present in AccurateRip database Copy OK

Track 2

Filename C:\Beach House - Bloom (2012) [FLAC]\02 - Wild.wav

Peak level 100.0 % Extraction speed 1.4 X Track quality 100.0 % Test CRC EC5D4265 Copy CRC EC5D4265 Track not present in AccurateRip database Copy OK

Track 3

Filename C:\Beach House - Bloom (2012) [FLAC]\03 - Lazuli.wav

Peak level 100.0 % Extraction speed 1.5 X Track quality 100.0 % Test CRC E793D83C Copy CRC E793D83C Track not present in AccurateRip database Copy OK

Track 4

Filename C:\Beach House - Bloom (2012) [FLAC]\04 - Other People.wav

Peak level 96.9 % Extraction speed 1.4 X Track quality 99.9 % Test CRC 3A4B2379 Copy CRC 3A4B2379 Track not present in AccurateRip database Copy OK

Track 5

Filename C:\Beach House - Bloom (2012) [FLAC]\05 - The Hours.wav

Peak level 96.6 % Extraction speed 1.7 X Track quality 100.0 % Test CRC 7559580F Copy CRC 7559580F Track not present in AccurateRip database Copy OK

Track 6

Filename C:\Beach House - Bloom (2012) [FLAC]\06 - Troublemaker.wav

Pre-gap length 0:00:04.37

Peak level 92.2 % Extraction speed 1.8 X Track quality 100.0 % Test CRC E11A164B Copy CRC E11A164B Track not present in AccurateRip database Copy OK

Track 7

Filename C:\Beach House - Bloom (2012) [FLAC]\07 - New Year.wav

Peak level 96.6 % Extraction speed 2.0 X Track quality 100.0 % Test CRC 5B53C260 Copy CRC 5B53C260 Track not present in AccurateRip database Copy OK

Track 8

Filename C:\Beach House - Bloom (2012) [FLAC]\08 - Wishes.wav

Pre-gap length 0:00:03.42

Peak level 96.6 % Extraction speed 2.0 X Track quality 100.0 % Test CRC 9518E5F6 Copy CRC 9518E5F6 Track not present in AccurateRip database Copy OK

Track 9

Filename C:\Beach House - Bloom (2012) [FLAC]\09 - On the Sea.wav

Pre-gap length 0:00:07.28

Peak level 96.6 % Extraction speed 2.2 X Track quality 100.0 % Test CRC DA3A8088 Copy CRC DA3A8088 Track not present in AccurateRip database Copy OK

Track 10

Filename C:\Beach House - Bloom (2012) [FLAC]\10 - Irene.wav

Peak level 96.6 % Extraction speed 2.5 X Track quality 100.0 % Test CRC 1164FB16 Copy CRC 1164FB16 Track not present in AccurateRip database Copy OK

None of the tracks are present in the AccurateRip database

No errors occurred

End of status report

---- CUETools DB Plugin V2.1.3

[CTDB TOCID: u2c96duJPavRPHQCXOfYrR.yHdU-] disk not present in database, Submit result: u2c96duJPavRPHQCXOfYrR.yHdU- has been uploaded

==== Log checksum 5E99E6F8ABE6C738C92EC3B8941F5760DDB37422828239BB579ED619D1523365 ====


Трекер:  [ 07-Май-2012 07:36 ]

  

Скачать .torrent

Размер .torrent файла 15 KB


Размер: 360 MB
Хэш (hash) релиза: 0e3f05d5f263a13cbe1494072a1ceacdcd68f663

Еще никто не оставлял запись к записи скачать торрент Beach House - Bloom - 2012 ALAC, lossless . Будь первым!

!Обратная связь