Скачать через торрент Мельница бесплатно русская версия torrent активатор

Если у вас наблюдаются проблемы со скриншотами, переходом по ссылками, скачиванием торрентов - проблемы в блокировщике рекламы AdBlock. #хорошегоДня!


Статистика раздачи
Размер:  6.6 GB   |    Зарегистрирован:  5 лет 5 месяцев   |    .torrent скачан:  84 раза   |   
Раздают:  1  
   
Загрузка...
 
Автор Сообщение

Galfimbul

avatar Galfimbul


Мельница (Хелависа, Clann lir, Hellawes, Последнее испытание) - Дискография



Год: 1999 - 2011
Страна: Россия
Страна-производитель диска: Россия
Жанр: Folk/Rock
Тип издания: оригинал
Наличие сканов в содержимом раздачи: да
Продолжительность: 14:25:29
Тексты: вшиты
Кодек: ALAC
Программа-риповщик : foobar2000 + iTunes (lossless)
Битрейт: lossless
Треклист:
01. Мора
02. Оборотень
03. Зима
04. На север
05. Неукротимое племя
06. Увядание листьев
07. Дуб, терновник и ясень
08. Сонный рыцарь
09. Дорога сна
10. Королевская охота
11. Воин вереска
12. Зов крови
13. Княже
14. Прялка
15. Королевна
  
Exact Audio Copy V0.99 prebeta 4 from 23. January 2008

Отчёт EAC об извлечении, выполненном 21. июня 2009, 22:20

Hellawes / Solo Album

Дисковод: PIONEER DVD-RW DVR-111D Adapter: 0 ID: 0

Режим чтения : Достоверность Использование точного потока : Да Отключение кэша аудио : Да Использование указателей C2 : Нет

Коррекция смещения при чтении : 48 Способность читать области Lead-in и Lead-out : Нет Заполнение пропущенных сэмплов тишиной : Да Удаление блоков с тишиной в начале и конце : Нет При вычислениях CRC использовались нулевые сэмплы : Да Интерфейс : Встроенный Win32-интерфейс для Win NT/2000

Выходной формат : Пользовательский кодировщик Выбранный битрейт : 768 kBit/s Качество : Высокий Добавление ID3-тэга : Нет Утилита сжатия : C:\Program Files\Exact Audio Copy\FLAC\FLAC.EXE Дополнительные параметры : -6 -V -T "ARTIST=%a" -T "TITLE=%t" -T "ALBUM=%g" -T "DATE=%y" -T "TRACKNUMBER=%n" -T "GENRE=%m" -T "COMMENT=%e" %s -o %d

TOC извлечённого CD

Трек | Старт | Длительность | Начальный сектор | Конечный сектор --------------------------------------------------------------------- 1 | 0:00.00 | 4:23.03 | 0 | 19727 2 | 4:23.03 | 2:25.41 | 19728 | 30643 3 | 6:48.44 | 4:05.11 | 30644 | 49029 4 | 10:53.55 | 2:28.47 | 49030 | 60176 5 | 13:22.27 | 3:44.37 | 60177 | 77013 6 | 17:06.64 | 4:10.20 | 77014 | 95783 7 | 21:17.09 | 3:50.54 | 95784 | 113087 8 | 25:07.63 | 4:34.50 | 113088 | 133687 9 | 29:42.38 | 3:49.70 | 133688 | 150932 10 | 33:32.33 | 4:25.67 | 150933 | 170874 11 | 37:58.25 | 4:31.71 | 170875 | 191270 12 | 42:30.21 | 4:57.13 | 191271 | 213558 13 | 47:27.34 | 4:27.12 | 213559 | 233595 14 | 51:54.46 | 6:58.23 | 233596 | 264968 15 | 58:52.69 | 5:26.02 | 264969 | 289420

Характеристики диапазона извлечения и сообщения об ошибках

Выбранный диапазон

Имя файла D:\multimedia\Music\Музыка\Мельница\Зима (Хелависа - Сольный)\Hellawes - Solo Album.wav

Пиковый уровень 100.0 % Качество диапазона 100.0 % CRC копии D2157B50 Копирование... OK

Ошибок не произошло

AccurateRip: сводка

Трек 1 нет в базе данных Трек 2 нет в базе данных Трек 3 нет в базе данных Трек 4 нет в базе данных Трек 5 нет в базе данных Трек 6 нет в базе данных Трек 7 нет в базе данных Трек 8 нет в базе данных Трек 9 нет в базе данных Трек 10 нет в базе данных Трек 11 нет в базе данных Трек 12 нет в базе данных Трек 13 нет в базе данных Трек 14 нет в базе данных Трек 15 нет в базе данных

Ни одного трека нет в базе AccurateRip

Конец отчёта
01. Богиня Иштар
02. Двери Тамерлана
03. Дракон
04. Королевна
05. Дуб, Терновник и Ясень
06. Горец
07. Оборотень
08. На север
  
Отчёт EAC об извлечении, выполненном 18. июля 2006, 22:35 для диска:Мельница / Двери Тамерлана

Дисковод: MAD DOG MD-16XDVD9A2 Adapter: 2 ID: 0Режим чтения: Точный (C2: нет, Точный поток: да, Отключение кэша: да)Комбинированное смещение чтения/записи: 0Экстрачтение областей Lead-in и Lead-out : Нет

Выходной формат: Monkey's Audio Lossless Encoder v3.99 DLL High Lossless Compression

Другие параметры: Заполнение пропущенных сэмплов тишиной : Да Удаление блоков с тишиной в начале и конце : Нет Установленный внешний ASPI-интерфейс

Статус диапазона и ошибкиВыбранный диапазон Имя файла C:\Music\Мельница\1999 Двери Тамерлана\Двери Тамерлана.ape

Пропущены сэмплы Пиковый уровень 0.0 % Качество диапазона 99.6 % CRC D543824B Копирование завершено

Были ошибки

Конец отчёта

------------------------------------------------------------

Отчёт EAC об извлечении, выполненном 18. июля 2006, 22:44 для диска:Мельница / Двери Тамерлана

Дисковод: ROXIO CD-ROM EMULATOR Adapter: 0 ID: 0Режим чтения: Точный (C2: нет, Точный поток: да, Отключение кэша: нет)Коррекция смещения при чтении: 0Экстрачтение областей Lead-in и Lead-out : Нет

Выходной формат: Monkey's Audio Lossless Encoder v3.99 DLL High Lossless Compression

Другие параметры: Заполнение пропущенных сэмплов тишиной : Да Удаление блоков с тишиной в начале и конце : Нет Установленный внешний ASPI-интерфейс

Статус диапазона и ошибкиВыбранный диапазон Имя файла C:\Music\Мельница\1999 Двери Тамерлана\Двери Тамерлана.ape

Пиковый уровень 97.5 % Качество диапазона 100.0 % CRC 9315B7C0 Копирование... OK

Ошибок не произошло

Конец отчёта
01. Дорога сна
02. Горец
03. Ольга
04. Лорд Грегори
05. Змей
06. Тарантелла
07. Зима
08. Оборотень
09. Рапунцель
10. Воин вереска
11. Мора
12. На север
  
Exact Audio Copy V0.99 prebeta 5 from 4. May 2009

Отчёт EAC об извлечении, выполненном 21. апреля 2012, 12:38

Мельница / Дорога сна

Дисковод: _NEC DVD_RW ND-3550A Adapter: 0 ID: 0

Режим чтения : ДостоверностьИспользование точного потока : ДаОтключение кэша аудио : ДаИспользование указателей C2 : Нет

Коррекция смещения при чтении : 48Способность читать области Lead-in и Lead-out : НетЗаполнение пропущенных сэмплов тишиной : ДаУдаление блоков с тишиной в начале и конце : НетПри вычислениях CRC использовались нулевые сэмплы : ДаИнтерфейс : Установленный внешний ASPI-интерфейс

Выходной формат : Внутренние WAV-операцииФормат сэмплов : 44.100 Гц; 16 бит; стерео

TOC извлечённого CD

Трек | Старт | Длительность | Начальный сектор | Конечный сектор --------------------------------------------------------------------- 1 | 0:00.00 | 3:13.15 | 0 | 14489 2 | 3:13.15 | 3:24.65 | 14490 | 29854 3 | 6:38.05 | 4:39.29 | 29855 | 50808 4 | 11:17.34 | 2:20.17 | 50809 | 61325 5 | 13:37.51 | 5:52.54 | 61326 | 87779 6 | 19:30.30 | 1:56.32 | 87780 | 96511 7 | 21:26.62 | 4:20.69 | 96512 | 116080 8 | 25:47.56 | 5:51.18 | 116081 | 142423 9 | 31:38.74 | 2:41.64 | 142424 | 154562 10 | 34:20.63 | 5:52.03 | 154563 | 180965 11 | 40:12.66 | 4:11.37 | 180966 | 199827 12 | 44:24.28 | 3:34.35 | 199828 | 215912

Характеристики диапазона извлечения и сообщения об ошибках

Выбранный диапазон

Имя файла F:\Music lossless\Мельница - Дорога сна.wav

Пиковый уровень 97.2 % Качество диапазона 100.0 % CRC теста 94C7B065 CRC копии 94C7B065 Копирование... OK

Ошибок не произошло

AccurateRip: сводка

Трек 1 точное извлечение (доверие 23) [ADFE1C89]Трек 2 точное извлечение (доверие 23) [6EE6E7A5]Трек 3 точное извлечение (доверие 23) [D690118C]Трек 4 точное извлечение (доверие 23) [0AAE0633]Трек 5 точное извлечение (доверие 23) [88DAD1E8]Трек 6 точное извлечение (доверие 23) [878B1373]Трек 7 точное извлечение (доверие 23) [7014A150]Трек 8 точное извлечение (доверие 23) [F76F541C]Трек 9 точное извлечение (доверие 23) [BF4637B8]Трек 10 точное извлечение (доверие 23) [A22F922C]Трек 11 точное извлечение (доверие 23) [BD462120]Трек 12 точное извлечение (доверие 23) [08997560]

Все треки извлечены точно

Конец отчёта
01. Master of the Wind
02. Голем
03. Двери Тамерлана
04. Луч солнца золотого
05. Травушка
06. Дракон
07. Богиня Иштар
  
EAC extraction logfile from 4. May 2007, 14:00 for CDМельница / Master Of The Mill

Used drive : _NEC DVD_RW ND-3520AW Adapter: 0 ID: 1Read mode : Secure with NO C2, accurate stream, disable cacheCombined read/write offset correction : 0Overread into Lead-In and Lead-Out : No

Used output format : Internal WAV Routines 44.100 Hz; 16 Bit; Stereo

Other options : Fill up missing offset samples with silence : Yes Delete leading and trailing silent blocks : No Native Win32 interface for Win NT & 2000

Range status and errorsSelected range Filename D:\wdac\Мельница - Master of the Mill\Мельница - Master Of The Mill.wav

Peak level 99.9 % Range quality 99.9 % CRC 0BB4B54E Copy OK

No errors occured

End of status report
01. Raithneach
02. Nach Cloite an Galar an Gra
03. Hornpipes
04. Anachie Gordon
05. Ye Jacobites by name
06. Black is the colour
07. Kemp's Jig
08. Y Deryn Du/Gwel yr Adeilad
09. Can Crwtyn y Gwartheg (Cowboi)
10. A Son in Amerikay
11. Casadh an tsagain
12. Cad e sin don te sin
13. Colm Cille na feile
  
Exact Audio Copy V0.99 prebeta 3 from 28. July 2007

EAC extraction logfile from 27. September 2007, 13:57

Clann Lir / Clann Lir

Used drive : LITEON DVD-ROM LTD163 Adapter: 1 ID: 1

Read mode : Secure Utilize accurate stream : Yes Defeat audio cache : Yes Make use of C2 pointers : No

Read offset correction : 594 Overread into Lead-In and Lead-Out : No Fill up missing offset samples with silence : Yes Delete leading and trailing silent blocks : No Null samples used in CRC calculations : Yes Used interface : Native Win32 interface for Win NT & 2000

Used output format : Internal WAV Routines Sample format : 44.100 Hz; 16 Bit; Stereo

TOC of the extracted CD

Track | Start | Length | Start sector | End sector --------------------------------------------------------- 1 | 0:00.00 | 4:20.53 | 0 | 19552 2 | 4:20.53 | 3:32.44 | 19553 | 35496 3 | 7:53.22 | 3:13.18 | 35497 | 49989 4 | 11:06.40 | 7:11.72 | 49990 | 82386 5 | 18:18.37 | 3:40.09 | 82387 | 98895 6 | 21:58.46 | 5:17.47 | 98896 | 122717 7 | 27:16.18 | 2:38.24 | 122718 | 134591 8 | 29:54.42 | 3:32.25 | 134592 | 150516 9 | 33:26.67 | 2:45.35 | 150517 | 162926 10 | 36:12.27 | 4:10.63 | 162927 | 181739 11 | 40:23.15 | 5:51.21 | 181740 | 208085 12 | 46:14.36 | 3:01.34 | 208086 | 221694 13 | 49:15.70 | 5:46.03 | 221695 | 247647

Range status and errors

Selected range

Filename E:\_TEMP\Clann Lir.wav

Peak level 100.0 % Range quality 100.0 % Copy CRC 4D79618F Copy OK

No errors occurred

AccurateRip summary

Track 1 accurately ripped (confidence 1) [2E3C1340] Track 2 accurately ripped (confidence 1) [63BB1A73] Track 3 accurately ripped (confidence 1) [FCC17C48] Track 4 accurately ripped (confidence 1) [F488A289] Track 5 accurately ripped (confidence 1) [FAF5E698] Track 6 accurately ripped (confidence 1) [F95068FD] Track 7 accurately ripped (confidence 1) [CC79978F] Track 8 accurately ripped (confidence 1) [961DAA23] Track 9 accurately ripped (confidence 1) [B1433B0F] Track 10 accurately ripped (confidence 1) [A569F82C] Track 11 accurately ripped (confidence 1) [136480CE] Track 12 accurately ripped (confidence 1) [348D7F02] Track 13 accurately ripped (confidence 1) [26936F0E]

All tracks accurately ripped

End of status report
01. Ночная кобыла
02. Господин горных дорог
03. Весна
04. Фуга
05. Чужой
06. Ворон
07. Голем
08. Мертвец
09. Вереск
10. Прялка
11. Королевна
  
Exact Audio Copy V0.99 prebeta 5 from 4. May 2009

Отчёт EAC об извлечении, выполненном 21. апреля 2012, 16:22

Мельница / Перевал

Дисковод: _NEC DVD_RW ND-3550A Adapter: 0 ID: 0

Режим чтения : ДостоверностьИспользование точного потока : ДаОтключение кэша аудио : ДаИспользование указателей C2 : Нет

Коррекция смещения при чтении : 48Способность читать области Lead-in и Lead-out : НетЗаполнение пропущенных сэмплов тишиной : ДаУдаление блоков с тишиной в начале и конце : НетПри вычислениях CRC использовались нулевые сэмплы : ДаИнтерфейс : Установленный внешний ASPI-интерфейс

Выходной формат : Внутренние WAV-операцииФормат сэмплов : 44.100 Гц; 16 бит; стерео

TOC извлечённого CD

Трек | Старт | Длительность | Начальный сектор | Конечный сектор --------------------------------------------------------------------- 1 | 0:00.00 | 4:04.13 | 0 | 18312 2 | 4:04.13 | 5:18.54 | 18313 | 42216 3 | 9:22.67 | 3:43.73 | 42217 | 59014 4 | 13:06.65 | 3:17.02 | 59015 | 73791 5 | 16:23.67 | 4:32.65 | 73792 | 94256 6 | 20:56.57 | 5:16.23 | 94257 | 117979 7 | 26:13.05 | 2:06.48 | 117980 | 127477 8 | 28:19.53 | 3:55.54 | 127478 | 145156 9 | 32:15.32 | 4:11.13 | 145157 | 163994 10 | 36:26.45 | 6:14.66 | 163995 | 192110 11 | 42:41.36 | 14:29.12 | 192111 | 257297

Характеристики диапазона извлечения и сообщения об ошибках

Выбранный диапазон

Имя файла F:\Music lossless\Мельница - Перевал.wav

Пиковый уровень 96.6 % Качество диапазона 99.9 % CRC теста 2D940ED2 CRC копии 2D940ED2 Копирование... OK

Ошибок не произошло

AccurateRip: сводка

Трек 1 точное извлечение (доверие 16) [8A260E77]Трек 2 точное извлечение (доверие 16) [956AEDF2]Трек 3 точное извлечение (доверие 16) [B2A670D8]Трек 4 точное извлечение (доверие 16) [149FC202]Трек 5 точное извлечение (доверие 16) [ABC69B0A]Трек 6 точное извлечение (доверие 16) [59EA51E3]Трек 7 точное извлечение (доверие 16) [90F594DB]Трек 8 точное извлечение (доверие 16) [C6320F39]Трек 9 точное извлечение (доверие 16) [8293F9FF]Трек 10 точное извлечение (доверие 16) [9C204808]Трек 11 точное извлечение (доверие 15) [83723523]

Все треки извлечены точно

Конец отчёта
01. Невеста Полоза
02. Зов крови
03. Двери Тамерлана
04. Травушка
05. Сестра
06. Полнолуние
07. Сказка о Дьяволе
08. Дракон
09. Ай, волна
10. Ворожи
11. Огонь
12. Лента в волосах
13. Белая кошка
14. Рапунцель
  
Exact Audio Copy V0.99 prebeta 5 from 4. May 2009

Отчёт EAC об извлечении, выполненном 21. апреля 2012, 20:36

Мельница / Зов крови

Дисковод: _NEC DVD_RW ND-3550A Adapter: 0 ID: 0

Режим чтения : ДостоверностьИспользование точного потока : ДаОтключение кэша аудио : ДаИспользование указателей C2 : Нет

Коррекция смещения при чтении : 48Способность читать области Lead-in и Lead-out : НетЗаполнение пропущенных сэмплов тишиной : ДаУдаление блоков с тишиной в начале и конце : НетПри вычислениях CRC использовались нулевые сэмплы : ДаИнтерфейс : Установленный внешний ASPI-интерфейс

Выходной формат : Внутренние WAV-операцииФормат сэмплов : 44.100 Гц; 16 бит; стерео

TOC извлечённого CD

Трек | Старт | Длительность | Начальный сектор | Конечный сектор --------------------------------------------------------------------- 1 | 0:00.00 | 4:32.26 | 0 | 20425 2 | 4:32.26 | 3:59.53 | 20426 | 38403 3 | 8:32.04 | 3:29.24 | 38404 | 54102 4 | 12:01.28 | 3:55.29 | 54103 | 71756 5 | 15:56.57 | 3:32.53 | 71757 | 87709 6 | 19:29.35 | 4:14.42 | 87710 | 106801 7 | 23:44.02 | 6:41.04 | 106802 | 136880 8 | 30:25.06 | 3:59.33 | 136881 | 154838 9 | 34:24.39 | 4:15.39 | 154839 | 174002 10 | 38:40.03 | 3:40.52 | 174003 | 190554 11 | 42:20.55 | 5:03.12 | 190555 | 213291 12 | 47:23.67 | 3:05.21 | 213292 | 227187 13 | 50:29.13 | 4:41.73 | 227188 | 248335 14 | 55:11.11 | 2:26.22 | 248336 | 259307

Характеристики диапазона извлечения и сообщения об ошибках

Выбранный диапазон

Имя файла F:\Music lossless\Мельница - Зов крови.wav

Пиковый уровень 99.7 % Качество диапазона 99.9 % CRC теста EA9379C6 CRC копии EA9379C6 Копирование... OK

Ошибок не произошло

AccurateRip: сводка

Трек 1 точное извлечение (доверие 11) [7F54637B]Трек 2 точное извлечение (доверие 11) [EA25A2EA]Трек 3 точное извлечение (доверие 11) [47195F45]Трек 4 точное извлечение (доверие 11) [1267BB3E]Трек 5 точное извлечение (доверие 11) [D866DCF4]Трек 6 точное извлечение (доверие 11) [7961FA77]Трек 7 точное извлечение (доверие 11) [2DB01CDB]Трек 8 точное извлечение (доверие 11) [AB37F85A]Трек 9 точное извлечение (доверие 11) [95E6AFE3]Трек 10 точное извлечение (доверие 11) [DEC8024F]Трек 11 точное извлечение (доверие 11) [DE58B152]Трек 12 точное извлечение (доверие 11) [E9AF4608]Трек 13 точное извлечение (доверие 11) [A3CA5041]Трек 14 точное извлечение (доверие 11) [323A7F4D]

Все треки извлечены точно

Конец отчёта
01. Невеста Полоза
02. Зов крови
03. Двери Тамерлана
04. Травушка
05. Сестра
06. Полнолуние
07. Сказка о Дьяволе
08. Дракон
09. Ай, волна
10. Ворожи
11. Огонь
12. Лента в волосах
  
Exact Audio Copy V0.99 prebeta 5 from 4. May 2009

Отчёт EAC об извлечении, выполненном 15. августа 2010, 17:51

Мельница / Зов крови

Дисковод: ASUS DRW-1814BLT Adapter: 1 ID: 0

Режим чтения : ДостоверностьИспользование точного потока : ДаОтключение кэша аудио : ДаИспользование указателей C2 : Нет

Коррекция смещения при чтении : 6Способность читать области Lead-in и Lead-out : НетЗаполнение пропущенных сэмплов тишиной : ДаУдаление блоков с тишиной в начале и конце : НетПри вычислениях CRC использовались нулевые сэмплы : ДаИнтерфейс : Установленный внешний ASPI-интерфейс

Выходной формат : Пользовательский кодировщикВыбранный битрейт : 1024 kBit/sКачество : ВысокийДобавление ID3-тэга : НетУтилита сжатия : C:\Program Files (x86)\Exact Audio Copy\Flac\flac.exeДополнительные параметры : -8 -V %s

TOC извлечённого CD

Трек | Старт | Длительность | Начальный сектор | Конечный сектор --------------------------------------------------------------------- 1 | 0:00.00 | 4:32.26 | 0 | 20425 2 | 4:32.26 | 3:59.53 | 20426 | 38403 3 | 8:32.04 | 3:29.24 | 38404 | 54102 4 | 12:01.28 | 3:55.29 | 54103 | 71756 5 | 15:56.57 | 3:32.53 | 71757 | 87709 6 | 19:29.35 | 4:14.42 | 87710 | 106801 7 | 23:44.02 | 6:41.04 | 106802 | 136880 8 | 30:25.06 | 3:59.33 | 136881 | 154838 9 | 34:24.39 | 4:15.39 | 154839 | 174002 10 | 38:40.03 | 3:40.52 | 174003 | 190554 11 | 42:20.55 | 5:03.12 | 190555 | 213291 12 | 47:23.67 | 3:05.34 | 213292 | 227200

Характеристики диапазона извлечения и сообщения об ошибках

Выбранный диапазон

Имя файла G:\!Music\!Lossless\Мельница - Зов крови\Мельница - Зов крови.wav

Пиковый уровень 99.7 % Качество диапазона 100.0 % CRC теста 610E3149 CRC копии 610E3149 Копирование... OK

Ошибок не произошло

AccurateRip: сводка

Трек 1 точное извлечение (доверие 23) [67264F3E]Трек 2 точное извлечение (доверие 21) [47E2649E]Трек 3 точное извлечение (доверие 22) [FE494516]Трек 4 точное извлечение (доверие 22) [65364D42]Трек 5 точное извлечение (доверие 22) [75E81C58]Трек 6 точное извлечение (доверие 22) [A49DCD91]Трек 7 точное извлечение (доверие 21) [147E41A0]Трек 8 точное извлечение (доверие 21) [B920A360]Трек 9 точное извлечение (доверие 21) [075A3929]Трек 10 точное извлечение (доверие 21) [1AA5552C]Трек 11 точное извлечение (доверие 21) [F5E545F2]Трек 12 точное извлечение (доверие 20) [CE4F1265]

Все треки извлечены точно

Конец отчёта
01. На север
02. Дорога сна
03. Господин горных дорог
04. Травушка
05. Ночная кобыла
06. Чужой
07. Огонь
08. Рапунцель
09. Ворожи
10. Прялка
11. Оборотень
12. Полнолуние
13. Мора
14. Королевна
15. Невеста Полоза
16. Горец
  
Exact Audio Copy V1.0 beta 1 from 15. November 2010

Отчёт EAC об извлечении, выполненном 27. февраля 2011, 3:49

Мельница / The Best

Дисковод: SONY DVD RW DRU-190A Adapter: 1 ID: 0

Режим чтения : ДостоверностьИспользование точного потока : ДаОтключение кэша аудио : ДаИспользование указателей C2 : Нет

Коррекция смещения при чтении : 6Способность читать области Lead-in и Lead-out : НетЗаполнение пропущенных сэмплов тишиной : ДаУдаление блоков с тишиной в начале и конце : НетПри вычислениях CRC использовались нулевые сэмплы : ДаИнтерфейс : Встроенный Win32-интерфейс для Win NT/2000

Выходной формат : Внутренние WAV-операцииФормат сэмплов : 44.100 Гц; 16 бит; стерео

TOC извлечённого CD

Трек | Старт | Длительность | Начальный сектор | Конечный сектор --------------------------------------------------------------------- 1 | 0:00.00 | 3:33.73 | 0 | 16047 2 | 3:33.73 | 3:11.31 | 16048 | 30403 3 | 6:45.29 | 5:20.49 | 30404 | 54452 4 | 12:06.03 | 3:56.67 | 54453 | 72219 5 | 16:02.70 | 4:04.05 | 72220 | 90524 6 | 20:07.00 | 4:32.30 | 90525 | 110954 7 | 24:39.30 | 5:03.69 | 110955 | 133748 8 | 29:43.24 | 2:40.64 | 133749 | 145812 9 | 32:24.13 | 3:41.58 | 145813 | 162445 10 | 36:05.71 | 6:15.68 | 162446 | 190638 11 | 42:21.64 | 5:48.12 | 190639 | 216750 12 | 48:10.01 | 4:15.73 | 216751 | 235948 13 | 52:25.74 | 4:09.65 | 235949 | 254688 14 | 56:35.64 | 5:19.19 | 254689 | 278632 15 | 61:55.08 | 4:32.19 | 278633 | 299051 16 | 66:27.27 | 3:24.67 | 299052 | 314418

Характеристики диапазона извлечения и сообщения об ошибках

Выбранный диапазон

Имя файла C:\Users\drundel\Desktop\Мельница - The Best.wav

Пиковый уровень 99.7 % Скорость извлечения 0.2 X Качество диапазона 100.0 % CRC теста 8E143AEE CRC копии 8E143AEE Копирование... OK

Ошибок не произошло

AccurateRip: сводка

Трек 1 : извлечено точно (доверие 6) [C0BD76A1]Трек 2 : извлечено точно (доверие 6) [90A84E19]Трек 3 : извлечено точно (доверие 6) [F996389E]Трек 4 : извлечено точно (доверие 6) [9A5457AD]Трек 5 : извлечено точно (доверие 6) [ECC85116]Трек 6 : извлечено точно (доверие 6) [A88F01C4]Трек 7 : извлечено точно (доверие 6) [190986DE]Трек 8 : извлечено точно (доверие 6) [8F4042F7]Трек 9 : извлечено точно (доверие 6) [60D0C28C]Трек 10 : извлечено точно (доверие 6) [CFB9E8C7]Трек 11 : извлечено точно (доверие 6) [1077EF32]Трек 12 : извлечено точно (доверие 6) [EF48AF25]Трек 13 : извлечено точно (доверие 6) [41312F77]Трек 14 : извлечено точно (доверие 6) [A2755880]Трек 15 : извлечено точно (доверие 6) [98DEEA3E]Трек 16 : извлечено точно (доверие 6) [002B6FF1]

Все треки извлечены точно

Конец отчёта

==== Контрольная сумма отчёта 425E98720F0D36B4A58A231E5F8AE69ED01A569075349C702F55A2ADFDC9DBCA ====
01. Raithneach
02. Nach Cloite an Galar an Gra
03. Hornpipes
04. Anachie Gordon
05. Ye Jacobites by name
06. Black is the colour
07. Kemp's Jig
08. Y Deryn Du/Gwel yr Adeilad
09. Can Crwtyn y Gwartheg (Cowboi)
10. A Son in Amerikay
11. Casadh an tsagain
12. Cad e sin don te sin
13. Colm Cille na feile
  
Exact Audio Copy V0.99 prebeta 5 from 4. May 2009

Отчёт EAC об извлечении, выполненном 22. апреля 2012, 10:43

Clann lir / Clann lir

Дисковод: _NEC DVD_RW ND-3550A Adapter: 0 ID: 0

Режим чтения : ДостоверностьИспользование точного потока : ДаОтключение кэша аудио : ДаИспользование указателей C2 : Нет

Коррекция смещения при чтении : 48Способность читать области Lead-in и Lead-out : НетЗаполнение пропущенных сэмплов тишиной : ДаУдаление блоков с тишиной в начале и конце : НетПри вычислениях CRC использовались нулевые сэмплы : ДаИнтерфейс : Установленный внешний ASPI-интерфейс

Выходной формат : Внутренние WAV-операцииФормат сэмплов : 44.100 Гц; 16 бит; стерео

TOC извлечённого CD

Трек | Старт | Длительность | Начальный сектор | Конечный сектор --------------------------------------------------------------------- 1 | 0:00.00 | 4:20.53 | 0 | 19552 2 | 4:20.53 | 3:32.44 | 19553 | 35496 3 | 7:53.22 | 3:13.18 | 35497 | 49989 4 | 11:06.40 | 7:11.72 | 49990 | 82386 5 | 18:18.37 | 3:40.09 | 82387 | 98895 6 | 21:58.46 | 5:17.47 | 98896 | 122717 7 | 27:16.18 | 2:38.24 | 122718 | 134591 8 | 29:54.42 | 3:32.25 | 134592 | 150516 9 | 33:26.67 | 2:45.35 | 150517 | 162926 10 | 36:12.27 | 4:10.63 | 162927 | 181739 11 | 40:23.15 | 5:51.21 | 181740 | 208085 12 | 46:14.36 | 3:01.34 | 208086 | 221694 13 | 49:15.70 | 5:46.03 | 221695 | 247647

Характеристики диапазона извлечения и сообщения об ошибках

Выбранный диапазон

Имя файла F:\Music lossless\Clann lir - Clann lir.wav

Пиковый уровень 100.0 % Качество диапазона 99.9 % CRC теста D61F7269 CRC копии D61F7269 Копирование... OK

Ошибок не произошло

AccurateRip: сводка

Трек 1 точность не определена (достоверность 2) [13D8F91D], AccurateRip вернул [2E3C1340]Трек 2 точность не определена (достоверность 3) [FA58EE9F], AccurateRip вернул [63BB1A73]Трек 3 точность не определена (достоверность 2) [7D45EEEC], AccurateRip вернул [FCC17C48]Трек 4 точность не определена (достоверность 2) [8C246791], AccurateRip вернул [F488A289]Трек 5 точность не определена (достоверность 2) [ADF00738], AccurateRip вернул [FAF5E698]Трек 6 точность не определена (достоверность 2) [5DC22245], AccurateRip вернул [F95068FD]Трек 7 точность не определена (достоверность 2) [5732930B], AccurateRip вернул [CC79978F]Трек 8 точность не определена (достоверность 2) [BC397EFF], AccurateRip вернул [961DAA23]Трек 9 точность не определена (достоверность 2) [F7FCB2F7], AccurateRip вернул [B1433B0F]Трек 10 точность не определена (достоверность 2) [51F97748], AccurateRip вернул [A569F82C]Трек 11 точность не определена (достоверность 3) [5841E986], AccurateRip вернул [136480CE]Трек 12 точность не определена (достоверность 2) [147622CE], AccurateRip вернул [348D7F02]Трек 13 точность не определена (достоверность 2) [8392B29A], AccurateRip вернул [26936F0E]

Ни один трек не прошёл проверки на точностьВ вашей базе может быть иной вариант штамповки диска

Конец отчёта
01. Опасное лето
02. Далеко
03. Шелкопряд
04. А если бы он
05. Ведьма
06. Кувшин
07. Княже
08. Ветер
09. Шаман
10. Волкодав
11. Ушба
12. Океан
  
Exact Audio Copy V0.99 prebeta 5 from 4. May 2009

Отчёт EAC об извлечении, выполненном 21. апреля 2012, 18:13

Мельница / Дикие травы

Дисковод: _NEC DVD_RW ND-3550A Adapter: 0 ID: 0

Режим чтения : ДостоверностьИспользование точного потока : ДаОтключение кэша аудио : ДаИспользование указателей C2 : Нет

Коррекция смещения при чтении : 48Способность читать области Lead-in и Lead-out : НетЗаполнение пропущенных сэмплов тишиной : ДаУдаление блоков с тишиной в начале и конце : НетПри вычислениях CRC использовались нулевые сэмплы : ДаИнтерфейс : Установленный внешний ASPI-интерфейс

Выходной формат : Внутренние WAV-операцииФормат сэмплов : 44.100 Гц; 16 бит; стерео

TOC извлечённого CD

Трек | Старт | Длительность | Начальный сектор | Конечный сектор --------------------------------------------------------------------- 1 | 0:00.00 | 4:24.04 | 0 | 19803 2 | 4:24.04 | 4:13.43 | 19804 | 38821 3 | 8:37.47 | 4:14.68 | 38822 | 57939 4 | 12:52.40 | 4:01.49 | 57940 | 76063 5 | 16:54.14 | 4:54.69 | 76064 | 98182 6 | 21:49.08 | 4:27.67 | 98183 | 118274 7 | 26:17.00 | 5:46.18 | 118275 | 144242 8 | 32:03.18 | 4:46.16 | 144243 | 165708 9 | 36:49.34 | 6:15.29 | 165709 | 193862 10 | 43:04.63 | 5:01.12 | 193863 | 216449 11 | 48:06.00 | 5:05.70 | 216450 | 239394 12 | 53:11.70 | 4:24.00 | 239395 | 259194

Характеристики диапазона извлечения и сообщения об ошибках

Выбранный диапазон

Имя файла F:\Music lossless\Мельница - Дикие травы.wav

Пиковый уровень 100.0 % Качество диапазона 99.9 % CRC теста 2870B785 CRC копии 2870B785 Копирование... OK

Ошибок не произошло

AccurateRip: сводка

Трек 1 точное извлечение (доверие 11) [ED4E0B25]Трек 2 точное извлечение (доверие 10) [9C1DBC9E]Трек 3 точное извлечение (доверие 10) [071476C5]Трек 4 точное извлечение (доверие 11) [0392A8E4]Трек 5 точное извлечение (доверие 10) [331C51F8]Трек 6 точное извлечение (доверие 10) [5D020E12]Трек 7 точное извлечение (доверие 11) [70783DAE]Трек 8 точное извлечение (доверие 11) [949802AB]Трек 9 точное извлечение (доверие 10) [59B7CA65]Трек 10 точное извлечение (доверие 10) [387A17E7]Трек 11 точное извлечение (доверие 11) [CA6FC29C]Трек 12 точное извлечение (доверие 9) [DC3101FA]

Все треки извлечены точно

Конец отчёта
01. Бродяга
02. Леопард в городе
03. Под луной
04. Увядание листьев
05. Листья под дождём
06. Гимн деревьям
07. Королевна
08. Королевская охота
09. Дракула-рил
10. Маргарита
11. Гретхен за прялкой
12. Сонет IX (E-moll)
13. Сонет XVII (G-dur)
  
Exact Audio Copy V1.0 beta 1 from 15. November 2010

Отчёт EAC об извлечении, выполненном 27. февраля 2011, 6:15

Хелависа / Леопард в городе

Дисковод: SONY DVD RW DRU-190A Adapter: 1 ID: 0

Режим чтения : ДостоверностьИспользование точного потока : ДаОтключение кэша аудио : ДаИспользование указателей C2 : Нет

Коррекция смещения при чтении : 6Способность читать области Lead-in и Lead-out : НетЗаполнение пропущенных сэмплов тишиной : ДаУдаление блоков с тишиной в начале и конце : НетПри вычислениях CRC использовались нулевые сэмплы : ДаИнтерфейс : Встроенный Win32-интерфейс для Win NT/2000

Выходной формат : Внутренние WAV-операцииФормат сэмплов : 44.100 Гц; 16 бит; стерео

TOC извлечённого CD

Трек | Старт | Длительность | Начальный сектор | Конечный сектор --------------------------------------------------------------------- 1 | 0:02.00 | 2:54.66 | 150 | 13265 2 | 2:56.66 | 3:37.24 | 13266 | 29564 3 | 6:34.15 | 3:28.46 | 29565 | 45210 4 | 10:02.61 | 4:13.20 | 45211 | 64205 5 | 14:16.06 | 2:59.73 | 64206 | 77703 6 | 17:16.04 | 3:56.01 | 77704 | 95404 7 | 21:12.05 | 5:25.28 | 95405 | 119807 8 | 26:37.33 | 4:20.46 | 119808 | 139353 9 | 30:58.04 | 2:10.51 | 139354 | 149154 10 | 33:08.55 | 2:48.25 | 149155 | 161779 11 | 35:57.05 | 3:46.40 | 161780 | 178769 12 | 39:43.45 | 3:10.73 | 178770 | 193092 13 | 42:54.43 | 1:52.14 | 193093 | 201506

Характеристики диапазона извлечения и сообщения об ошибках

Выбранный диапазон

Имя файла C:\Users\drundel\Desktop\Хелависа - Леопард в городе.wav

Пиковый уровень 99.4 % Скорость извлечения 0.2 X Качество диапазона 100.0 % CRC теста B4559A24 CRC копии B4559A24 Копирование... OK

Ошибок не произошло

AccurateRip: сводка

Трек 1 : извлечено точно (доверие 5) [C96886A8]Трек 2 : извлечено точно (доверие 5) [907D4F75]Трек 3 : извлечено точно (доверие 5) [84315BA4]Трек 4 : извлечено точно (доверие 5) [2A979529]Трек 5 : извлечено точно (доверие 5) [6ECE00FA]Трек 6 : извлечено точно (доверие 5) [421AF3C6]Трек 7 : извлечено точно (доверие 5) [E4BE824B]Трек 8 : извлечено точно (доверие 5) [443C41B1]Трек 9 : извлечено точно (доверие 5) [E8880FCF]Трек 10 : извлечено точно (доверие 5) [C56D6E1B]Трек 11 : извлечено точно (доверие 5) [68A97135]Трек 12 : извлечено точно (доверие 5) [E7839C07]Трек 13 : извлечено точно (доверие 5) [C3E8FFC1]

Все треки извлечены точно

Конец отчёта

==== Контрольная сумма отчёта 543A9F80FFD4D806E8D02F3FE01BBB863B3562739CEA34B2ED52EADCAE53886F ====
01. Бродяга
02. Леопард в городе
03. Под луной
04. Увядание листьев
05. Листья под дождём
06. Гимн деревьям
07. Королевна
08. Королевская охота
09. Дракула-рил
10. Маргарита
11. Гретхен за прялкой
  
Exact Audio Copy V0.99 prebeta 5 from 4. May 2009

Отчёт EAC об извлечении, выполненном 13. января 2012, 12:48

Хелависа / Леопард в городе

Дисковод: _NEC DVD_RW ND-3550A Adapter: 0 ID: 0

Режим чтения : ДостоверностьИспользование точного потока : ДаОтключение кэша аудио : ДаИспользование указателей C2 : Нет

Коррекция смещения при чтении : 48Способность читать области Lead-in и Lead-out : НетЗаполнение пропущенных сэмплов тишиной : ДаУдаление блоков с тишиной в начале и конце : НетПри вычислениях CRC использовались нулевые сэмплы : ДаИнтерфейс : Установленный внешний ASPI-интерфейс

Выходной формат : Внутренние WAV-операцииФормат сэмплов : 44.100 Гц; 16 бит; стерео

TOC извлечённого CD

Трек | Старт | Длительность | Начальный сектор | Конечный сектор --------------------------------------------------------------------- 1 | 0:00.00 | 2:54.66 | 0 | 13115 2 | 2:54.66 | 3:37.24 | 13116 | 29414 3 | 6:32.15 | 3:28.46 | 29415 | 45060 4 | 10:00.61 | 4:13.20 | 45061 | 64055 5 | 14:14.06 | 2:59.73 | 64056 | 77553 6 | 17:14.04 | 3:56.01 | 77554 | 95254 7 | 21:10.05 | 5:25.28 | 95255 | 119657 8 | 26:35.33 | 4:20.46 | 119658 | 139203 9 | 30:56.04 | 2:10.51 | 139204 | 149004 10 | 33:06.55 | 2:48.25 | 149005 | 161629 11 | 35:55.05 | 3:44.40 | 161630 | 178469

Характеристики диапазона извлечения и сообщения об ошибках

Выбранный диапазон

Имя файла F:\Music lossless\Хелависа - Леопард в городе.wav

Пиковый уровень 99.4 % Качество диапазона 100.0 % CRC теста D7DCC776 CRC копии D7DCC776 Копирование... OK

Ошибок не произошло

AccurateRip: сводка

Трек 1 точное извлечение (доверие 1) [C96886A8]Трек 2 точное извлечение (доверие 1) [907D4F75]Трек 3 точное извлечение (доверие 1) [84315BA4]Трек 4 точное извлечение (доверие 1) [2A979529]Трек 5 точное извлечение (доверие 1) [6ECE00FA]Трек 6 точное извлечение (доверие 1) [421AF3C6]Трек 7 точное извлечение (доверие 1) [E4BE824B]Трек 8 точное извлечение (доверие 1) [443C41B1]Трек 9 точное извлечение (доверие 1) [E8880FCF]Трек 10 точное извлечение (доверие 1) [C56D6E1B]Трек 11 точное извлечение (доверие 1) [E462A4FB]

Все треки извлечены точно

Конец отчёта
01. Невеста Полоза
02. Дорога сна
03. Ворожи
04. Ветер
05. Горец
06. Двери Тамерлана
07. Далеко
08. Полнолуние
09. Господин горных дорог
10. Волкодав
11. Лорд Грегори
12. Ночная кобыла
13. А если бы он
14. Ай, волна
15. Рапунцель
16. Кувшин
17. Травушка
18. Лента в волосах
19. Шелкопряд
20. Фуга
  
Exact Audio Copy V0.99 prebeta 5 from 4. May 2009

Отчёт EAC об извлечении, выполненном 25. декабря 2009, 0:39

Мельница / Новая Коллекция

Дисковод: Optiarc DVD RW AD-7173S Adapter: 3 ID: 0

Режим чтения : ДостоверностьИспользование точного потока : ДаОтключение кэша аудио : ДаИспользование указателей C2 : Нет

Коррекция смещения при чтении : 48Способность читать области Lead-in и Lead-out : НетЗаполнение пропущенных сэмплов тишиной : ДаУдаление блоков с тишиной в начале и конце : НетПри вычислениях CRC использовались нулевые сэмплы : ДаИнтерфейс : Установленный внешний ASPI-интерфейс

Выходной формат : Пользовательский кодировщикВыбранный битрейт : 128 kBit/sКачество : ВысокийДобавление ID3-тэга : НетУтилита сжатия : C:\Program Files\Exact Audio Copy\FLAC\FLAC.EXEДополнительные параметры : -8 -V -T "ARTIST=%a" -T "TITLE=%t" -T "ALBUM=%g" -T "DATE=%y" -T "TRACKNUMBER=%n" -T "GENRE=%m" -T "COMMENT=%e" %s -o %d

TOC извлечённого CD

Трек | Старт | Длительность | Начальный сектор | Конечный сектор --------------------------------------------------------------------- 1 | 0:00.00 | 4:30.56 | 0 | 20305 2 | 4:30.56 | 3:09.05 | 20306 | 34485 3 | 7:39.61 | 3:39.37 | 34486 | 50947 4 | 11:19.23 | 4:43.73 | 50948 | 72245 5 | 16:03.21 | 3:21.52 | 72246 | 87372 6 | 19:24.73 | 3:28.61 | 87373 | 103033 7 | 22:53.59 | 4:11.38 | 103034 | 121896 8 | 27:05.22 | 4:13.46 | 121897 | 140917 9 | 31:18.68 | 5:18.42 | 140918 | 164809 10 | 36:37.35 | 4:59.44 | 164810 | 187278 11 | 41:37.04 | 2:16.18 | 187279 | 197496 12 | 43:53.22 | 4:03.14 | 197497 | 215735 13 | 47:56.36 | 4:00.22 | 215736 | 233757 14 | 51:56.58 | 4:14.73 | 233758 | 252880 15 | 56:11.56 | 2:39.00 | 252881 | 264805 16 | 58:50.56 | 4:24.71 | 264806 | 284676 17 | 63:15.52 | 3:54.08 | 284677 | 302234 18 | 67:09.60 | 3:04.54 | 302235 | 316088 19 | 70:14.39 | 4:12.34 | 316089 | 335022 20 | 74:26.73 | 3:14.72 | 335023 | 349644

Характеристики диапазона извлечения и сообщения об ошибках

Выбранный диапазон

Имя файла E:\ЕАС\Мельница - Новая Коллекция (2009) (Loosles)\Мельница - Новая Коллекция.wav

Пиковый уровень 98.8 % Качество диапазона 100.0 % CRC теста C177FEBA CRC копии C177FEBA Копирование... OK

Ошибок не произошло

AccurateRip: сводка

Трек 1 нет в базе данныхТрек 2 нет в базе данныхТрек 3 нет в базе данныхТрек 4 нет в базе данныхТрек 5 нет в базе данныхТрек 6 нет в базе данныхТрек 7 нет в базе данныхТрек 8 нет в базе данныхТрек 9 нет в базе данныхТрек 10 нет в базе данныхТрек 11 нет в базе данныхТрек 12 нет в базе данныхТрек 13 нет в базе данныхТрек 14 нет в базе данныхТрек 15 нет в базе данныхТрек 16 нет в базе данныхТрек 17 нет в базе данныхТрек 18 нет в базе данныхТрек 19 нет в базе данныхТрек 20 нет в базе данных

Ни одного трека нет в базе AccurateRip

Конец отчёта
Часть 1 — Тьма и Свет

01. Ария Чародея ('Те глаза')
02. Зов бездны
03. Ссора братьев
04. Молитва
05. Встреча у Летописца
06. Игра с огнем
07. Возвращенное письмо (фрагмент сцены 'Кабак')
08. Конклав Магов
09. Я дам тебе имя

Часть 2 — Всё во имя веры

10. Ария Короля-Жреца
11. Восторг
12. Прокурор
13. Все во имя веры
14. Обличение Короля-Жреца
15. О братстве
16. Гладиатор
17. Арена
18. Месса
19. Плач об Истаре
20. Легенда о Вратах
  
Отчёт EAC об извлечении, выполненном 10. апреля 2009, 0:00 для диска:Последнее испытание / Последнее испытание

Дисковод: ASUS DRW-1814BLT Adapter: 1 ID: 0Режим чтения: Достоверный (C2: нет, Точный поток: да, Отключение кэша: да)Коррекция смещения при чтении: 6Способность читать области Lead-in и Lead-out : Нет

Выходной формат: C:\Program Files\Monkey's Audio\MAC.exe (Monkey's Audio (без потерь)) High Lossless Compression

Другие параметры: Заполнение пропущенных сэмплов тишиной : Да Удаление блоков с тишиной в начале и конце : Нет Установленный внешний ASPI-интерфейс

Характеристики диапазона извлечения и сообщения об ошибкахВыбранный диапазон Имя файла D:\MUSIC\Последнее испытание - Последнее испытание.wav

Пиковый уровень 99.2 % Качество диапазона 99.9 % CRC 44366672 Копирование... OK

Ошибок не произошло

Конец отчёта
Часть 3 - Легенда о Вратах

01. Пролог
02. Примирение братьев
03. Армия чародея
04. Победа
05. Соблазнение
06. Дуэт «О любви»
07. Колыбельная
08. Присяга
09. Испытание огнем

Часть 4 - Властелин Ничего

10. Встреча с Такхизис
11. Изида под покрывалом
12. Кошмары
13 Танго со смертью
14. Жертва
15. Отречение
16. Прозрение
17. Властелин Ничего
  
Exact Audio Copy V0.99 prebeta 5 from 4. May 2009

EAC extraction logfile from 28. November 2010, 1:31

Саруман / Последнее испытание Часть 2

Used drive : PLEXTOR DVDR PX-860A Adapter: 0 ID: 0

Read mode : SecureUtilize accurate stream : YesDefeat audio cache : YesMake use of C2 pointers : No

Read offset correction : 96Overread into Lead-In and Lead-Out : NoFill up missing offset samples with silence : YesDelete leading and trailing silent blocks : NoNull samples used in CRC calculations : YesUsed interface : Installed external ASPI interface

Used output format : Monkey's Audio Lossless EncoderSelected bitrate : Normal Lossless CompressionQuality : HighAdd ID3 tag : YesCommand line compressor : C:\Program Files\Monkey's Audio\MAC.exe

TOC of the extracted CD

Track | Start | Length | Start sector | End sector---------------------------------------------------------1 | 0:00.00 | 1:11.37 | 0 | 53612 | 1:11.37 | 1:54.01 | 5362 | 139123 | 3:05.38 | 3:24.24 | 13913 | 292364 | 6:29.62 | 3:29.18 | 29237 | 449295 | 9:59.05 | 4:10.73 | 44930 | 637526 | 14:10.03 | 5:35.29 | 63753 | 889067 | 19:45.32 | 3:13.11 | 88907 | 1033928 | 22:58.43 | 2:36.18 | 103393 | 1151109 | 25:34.61 | 3:59.44 | 115111 | 13307910 | 29:34.30 | 5:39.00 | 133080 | 15850411 | 35:13.30 | 3:18.58 | 158505 | 17341212 | 38:32.13 | 2:55.26 | 173413 | 18656313 | 41:27.39 | 2:33.37 | 186564 | 19807514 | 44:01.01 | 4:17.29 | 198076 | 21737915 | 48:18.30 | 3:13.71 | 217380 | 23192516 | 51:32.26 | 3:26.24 | 231926 | 24739917 | 54:58.50 | 6:18.02 | 247400 | 275751

Range status and errors

Selected range

Filename J:\MUSIC\Саруман - Последнее испытание Часть 2.wav

Peak level 100.0 %Range quality 100.0 %Test CRC CCFC0C96Copy CRC CCFC0C96Copy OK

No errors occurred

AccurateRip summary

Track 1 not present in databaseTrack 2 not present in databaseTrack 3 not present in databaseTrack 4 not present in databaseTrack 5 not present in databaseTrack 6 not present in databaseTrack 7 not present in databaseTrack 8 not present in databaseTrack 9 not present in databaseTrack 10 not present in databaseTrack 11 not present in databaseTrack 12 not present in databaseTrack 13 not present in databaseTrack 14 not present in databaseTrack 15 not present in databaseTrack 16 not present in databaseTrack 17 not present in database

None of the tracks are present in the AccurateRip database

End of status report
01. Береги себя
02. Овечка
  
Exact Audio Copy V1.0 beta 1 from 15. November 2010

Отчёт EAC об извлечении, выполненном 28. февраля 2011, 17:01

Мельница / Рождественские песни

Дисковод: SONY DVD RW DRU-190A Adapter: 1 ID: 0

Режим чтения : ДостоверностьИспользование точного потока : ДаОтключение кэша аудио : ДаИспользование указателей C2 : Нет

Коррекция смещения при чтении : 6Способность читать области Lead-in и Lead-out : НетЗаполнение пропущенных сэмплов тишиной : ДаУдаление блоков с тишиной в начале и конце : НетПри вычислениях CRC использовались нулевые сэмплы : ДаИнтерфейс : Встроенный Win32-интерфейс для Win NT/2000

Выходной формат : Внутренние WAV-операцииФормат сэмплов : 44.100 Гц; 16 бит; стерео

TOC извлечённого CD

Трек | Старт | Длительность | Начальный сектор | Конечный сектор --------------------------------------------------------------------- 1 | 0:00.00 | 3:25.18 | 0 | 15392 2 | 3:25.18 | 5:54.32 | 15393 | 41974

Характеристики диапазона извлечения и сообщения об ошибках

Выбранный диапазон

Имя файла C:\Users\drundel\Desktop\Мельница - Рождественские песни.wav

Пиковый уровень 100.0 % Скорость извлечения 3.2 X Качество диапазона 100.0 % CRC теста D88390B6 CRC копии D88390B6 Копирование... OK

Ошибок не произошло

AccurateRip: сводка

Трек 1 отсутствует в базе данныхТрек 2 отсутствует в базе данных

Ни одного трека нет в базе AccurateRip

Конец отчёта

==== Контрольная сумма отчёта 07A5AF611401F1721607D35F919C53949112DB96F9066F3EC7A587AD9532D9EC ====

  
Started at: вторник, 24. 04. 2012. - 8:58.2217 files found

01 -===- F:\Music lossless\1\Мельница - Дискография lossless\1999 - Solo Album\Hellawes - Solo Album.flac Extracted successfully Conclusion: this track is CDDA with probability 100% Tempfile successfully deleted.

02 -===- F:\Music lossless\1\Мельница - Дискография lossless\1999 - Двери Тамерлана (Мельница, 1999)\Мельница - Двери Тамерлана.flac Extracted successfully Conclusion: this track is CDDA with probability 100% Tempfile successfully deleted.

03 -===- F:\Music lossless\1\Мельница - Дискография lossless\2002 - Дорога сна\Мельница - Дорога сна.flac Extracted successfully Conclusion: this track is CDDA with probability 100% Tempfile successfully deleted.

04 -===- F:\Music lossless\1\Мельница - Дискография lossless\2004 - Master of the Mill (Мельница, 2004)\Мельница - Master of the Mill.flac Extracted successfully Conclusion: this track is CDDA with probability 100% Tempfile successfully deleted.

05 -===- F:\Music lossless\1\Мельница - Дискография lossless\2005 - Clann lir\Clann Lir.ape Extracted successfully Conclusion: this track is CDDA with probability 100% Tempfile successfully deleted.

06 -===- F:\Music lossless\1\Мельница - Дискография lossless\2005 - Перевал\Мельница - Перевал.flac Extracted successfully Conclusion: this track is CDDA with probability 100% Tempfile successfully deleted.

07 -===- F:\Music lossless\1\Мельница - Дискография lossless\2006 - Зов крови\Мельница - Зов крови.flac Extracted successfully Conclusion: this track is CDDA with probability 100% Tempfile successfully deleted.

08 -===- F:\Music lossless\1\Мельница - Дискография lossless\2006 - Зов крови (Navigator Records, NR 03.06 CD, 2006)\Мельница - Зов крови.flac Extracted successfully Conclusion: this track is CDDA with probability 100% Tempfile successfully deleted.

09 -===- F:\Music lossless\1\Мельница - Дискография lossless\2007 - The Best (Navigator Records, NR 1607 CD, 2007)\Мельница - The Best.flac Extracted successfully Conclusion: this track is CDDA with probability 100% Tempfile successfully deleted.

10 -===- F:\Music lossless\1\Мельница - Дискография lossless\2008 - Clann lir\Clann lir - Clann lir.flac Extracted successfully Conclusion: this track is CDDA with probability 100% Tempfile successfully deleted.

11 -===- F:\Music lossless\1\Мельница - Дискография lossless\2009 - Дикие травы\Мельница - Дикие травы.flac Extracted successfully Conclusion: this track is CDDA with probability 100% Tempfile successfully deleted.

12 -===- F:\Music lossless\1\Мельница - Дискография lossless\2009 - Леопард в городе\Хелависа - Леопард в городе.flac Extracted successfully Conclusion: this track is CDDA with probability 100% Tempfile successfully deleted.

13 -===- F:\Music lossless\1\Мельница - Дискография lossless\2009 - Леопард в городе (Хелависа) (Navigator Records, NR 2909 CDp, 2009)\Хелависа - Леопард в городе.flac Extracted successfully Conclusion: this track is CDDA with probability 100% Tempfile successfully deleted.

14 -===- F:\Music lossless\1\Мельница - Дискография lossless\2009 - Лучшие песни. Новая коллекция (Студия МОНОЛИТ, МТ 000410-187-1, 2009)\Мельница - Новая Коллекция.flac Extracted successfully Conclusion: this track is CDDA with probability 99% Tempfile successfully deleted.

15 -===- F:\Music lossless\1\Мельница - Дискография lossless\2009 - Последнее Испытание\Последнее испытание - Последнее испытание.ape Extracted successfully Conclusion: this track is CDDA with probability 100% Tempfile successfully deleted.

16 -===- F:\Music lossless\1\Мельница - Дискография lossless\2011 - Рождественские песни (сингл) (Navigator Records, 2011)\Мельница - Рождественские песни.flac Extracted successfully Conclusion: this track is CDDA with probability 100% Tempfile successfully deleted.

17 -===- F:\Music lossless\1\Мельница - Дискография lossless\Последнее испытание Часть 2 - 2010 (APE Lossless)\Саруман - Последнее испытание Часть 2.ape Extracted successfully Conclusion: this track is CDDA with probability 99% Tempfile successfully deleted.

Finished at: вторник, 24. 04. 2012. - 10:04.57 (operation time: 1:06.34)



Трекер:  [ 07-Май-2012 07:36 ]

  

Скачать .torrent

Размер .torrent файла 61 KB


Размер: 6.6 GB
Хэш (hash) релиза: 12b51b76d1fcce01c0bc2dcad8f0657f9c75b3f0

Торренты, похожие на Мельница скачать торрент

Форум Название Автор Размер S L Добавлен
Скринсейверы ·· Водяная Мельница - Анимированная Заставка 5.07 (x86) [2007, RUS] Fanfar 46542414 MB 0 0 1303765118

23:58

25-Апр-11

Скринсейверы ·· Ветряные Мельницы - Анимированная Заставка 5.07 (x86) [2007, RUS] Fanfar 35064873 MB 0 0 1303765092

23:58

25-Апр-11

Скринсейверы ·· Мельница у Водопада - Анимированная Заставка 5.07 (x86) [2007, RUS] Fanfar 60240686 MB 0 0 1303765020

23:57

25-Апр-11

Еще никто не оставлял запись к записи скачать торрент Мельница . Будь первым!

!Обратная связь