Скачать через торрент The Left Banke - Walk Away ReneePretty Ballerina - 1967 ALAC, lossless бесплатно русская версия torrent активатор

Если у вас наблюдаются проблемы со скриншотами, переходом по ссылками, скачиванием торрентов - проблемы в блокировщике рекламы AdBlock. #хорошегоДня!


Статистика раздачи
Размер:  171 MB   |    Зарегистрирован:  5 лет 5 месяцев   |    .torrent скачан:  24 раза   |   
Раздают:  1  
   
Загрузка...
 
Автор Сообщение

Galfimbul

avatar Galfimbul


The Left Banke - Walk Away Renee/Pretty Ballerina

Год: 1967
Страна: US
Жанр: Baroque Pop
Продолжительность: 28:28
Тексты: вшиты
Кодек: ALAC
Программа-риповщик : foobar2000 + iTunes (lossless)
Битрейт: lossless
Треклист:
1. Pretty Ballerina
2. She May Call You up Tonight
3. Barterers and Their Wives
4. I've Got Something on My Mind
5. Let Go of You Girl
6. Evening Gown
7. Walk Away Renee
8. What Do You Know?
9. Shadows Breaking over My Head
10. I Haven't Got the Nerve
11. Lazy Day
Доп. информация: Шедевр 60х наравне с Pet Sounds, Sgt. Pepper и Odessey and Oracle
  
Exact Audio Copy V1.0 beta 1 from 15. November 2010

EAC extraction logfile from 22. June 2011, 21:03

The Left Banke / Walk Away Renee/Pretty Ballerina

Used drive : hp CDDVDW TS-H653R Adapter: 0 ID: 0

Read mode : SecureUtilize accurate stream : YesDefeat audio cache : YesMake use of C2 pointers : No

Read offset correction : 6Overread into Lead-In and Lead-Out : NoFill up missing offset samples with silence : YesDelete leading and trailing silent blocks : NoNull samples used in CRC calculations : YesUsed interface : Native Win32 interface for Win NT & 2000Gap handling : Appended to previous track

Used output format : Internal WAV RoutinesSample format : 44.100 Hz; 16 Bit; Stereo

TOC of the extracted CD

Track | Start | Length | Start sector | End sector --------------------------------------------------------- 1 | 0:00.00 | 2:38.56 | 0 | 11905 2 | 2:38.56 | 2:21.68 | 11906 | 22548 3 | 5:00.49 | 3:00.65 | 22549 | 36113 4 | 8:01.39 | 2:49.46 | 36114 | 48834 5 | 10:51.10 | 2:55.47 | 48835 | 62006 6 | 13:46.57 | 1:46.48 | 62007 | 70004 7 | 15:33.30 | 2:44.61 | 70005 | 82365 8 | 18:18.16 | 3:00.68 | 82366 | 95933 9 | 21:19.09 | 2:36.21 | 95934 | 107654 10 | 23:55.30 | 2:16.20 | 107655 | 117874 11 | 26:11.50 | 2:23.73 | 117875 | 128672

Track 1

Filename C:\Rips\01 - Pretty Ballerina.wav

Pre-gap length 0:00:02.00

Peak level 89.5 % Extraction speed 1.5 X Track quality 99.9 % Test CRC 7A5F592B Copy CRC 7A5F592B Track not present in AccurateRip database Copy OK

Track 2

Filename C:\Rips\02 - She May Call You Up Tonight.wav

Pre-gap length 0:00:02.77

Peak level 99.9 % Extraction speed 1.8 X Track quality 100.0 % Test CRC 9A273CFE Copy CRC 9A273CFE Track not present in AccurateRip database Copy OK

Track 3

Filename C:\Rips\03 - Barterers And Their Wives.wav

Pre-gap length 0:00:03.01

Peak level 91.0 % Extraction speed 2.0 X Track quality 100.0 % Test CRC 6E5384A4 Copy CRC 6E5384A4 Track not present in AccurateRip database Copy OK

Track 4

Filename C:\Rips\04 - I've Got Something On My Mind.wav

Pre-gap length 0:00:04.30

Peak level 99.8 % Extraction speed 2.1 X Track quality 100.0 % Test CRC E1B1F862 Copy CRC E1B1F862 Track not present in AccurateRip database Copy OK

Track 5

Filename C:\Rips\05 - Let Go Of You Girl.wav

Pre-gap length 0:00:02.38

Peak level 95.6 % Extraction speed 1.8 X Track quality 99.9 % Test CRC 699646CB Copy CRC 699646CB Track not present in AccurateRip database Copy OK

Track 6

Filename C:\Rips\06 - Evening Gown.wav

Pre-gap length 0:00:02.45

Peak level 92.4 % Extraction speed 2.1 X Track quality 100.0 % Test CRC A5E77BFC Copy CRC A5E77BFC Track not present in AccurateRip database Copy OK

Track 7

Filename C:\Rips\07 - Walk Away Renee.wav

Pre-gap length 0:00:01.92

Peak level 93.2 % Extraction speed 2.4 X Track quality 100.0 % Test CRC 1C504B11 Copy CRC 1C504B11 Track not present in AccurateRip database Copy OK

Track 8

Filename C:\Rips\08 - What Do You Know.wav

Pre-gap length 0:00:02.82

Peak level 94.7 % Extraction speed 2.5 X Track quality 100.0 % Test CRC 04E3360C Copy CRC 04E3360C Track not present in AccurateRip database Copy OK

Track 9

Filename C:\Rips\09 - Shadows Breaking Over My Head.wav

Pre-gap length 0:00:02.45

Peak level 84.7 % Extraction speed 2.5 X Track quality 100.0 % Test CRC 8AD83771 Copy CRC 8AD83771 Track not present in AccurateRip database Copy OK

Track 10

Filename C:\Rips\10 - I Haven't Got The Nerve.wav

Pre-gap length 0:00:03.20

Peak level 96.2 % Extraction speed 2.5 X Track quality 100.0 % Test CRC B886A462 Copy CRC B886A462 Track not present in AccurateRip database Copy OK

Track 11

Filename C:\Rips\11 - Lazy Day.wav

Pre-gap length 0:00:03.40

Peak level 96.3 % Extraction speed 2.6 X Track quality 100.0 % Test CRC 78BF567D Copy CRC 78BF567D Track not present in AccurateRip database Copy OK

None of the tracks are present in the AccurateRip database

No errors occurred

End of status report


Трекер:  [ 07-Май-2012 07:36 ]

  

Скачать .torrent

Размер .torrent файла 14 KB


Размер: 171 MB
Хэш (hash) релиза: 565b0ff1f1c20eb08a2ed59c3a68583a45cf7c7a

Еще никто не оставлял запись к записи скачать торрент The Left Banke - Walk Away ReneePretty Ballerina - 1967 ALAC, lossless . Будь первым!

!Обратная связь