Family Guy torrent

, , - AdBlock. #!


45.05 GB   |    :  5 5    |    .torrent :  3613    |   
1  
   
...
 

L


Family Guy
: 1999-2011
: USA
: ,
: ~22
: FeliZa Studio, 2x2
: ,

: , , ,

: , , , , , .

: Seth MacFarlane as the voice of Peter Griffin, Stewie Griffin, Brian, Glen Quagmire, Tom Tucker, Various
Alex Borstein as the voice of Lois Pewterschmidt Griffin, Loretta Brown, Tricia Takanawa, Various
Seth Green as the voice of Chris Griffin
Mila Kunis as the voice of Meg Griffin (Season 2+)

: Family Guy - -, (Seth MacFarlane) FOX. : , , , ; , ; , ; -, - , ; 13- 10, . - , .

:

1 - 1999-1999 - 7
2 - 1999-2000 - 21
3 - 2001-2003 - 22
4 - 2005-2006 - 30
5 - 2006-2007 - 18
6 - 2007-2008 - 12
7 - 2008-2009 - 16
8 - 2009-2010 - 21
9 - 2010-2011 - 18
: DVDRip
: M4V
: H.264
: 720x536 ~800kbps
1: Russian(2x2), AAC 48KHz stereo 160kbps
2: Russian(Feliza Studio), AAC 48KHz stereo 160kbps
3: English, AAC 48KHz stereo 160kbps
: ,
contentID: 268515531
Copyright: 1999 Twentieth Century Fox Film Corporation
Rating: 13
Long Description: , - . , $150000.
Description: , - . , $150000.
TV Season: 1
TV Episode ID: 101
TV Network: FOX
TV Episode #: 1
TV Show: Family Guy
Disk #: 1/1
Track #: 1/7
Release Date: 1999-01-31T08:00:00Z
Genre: Comedy
Album: , 1
Artist: Family Guy
Name: Death Has a Shadow
General
Complete name : F:\TORRENT\\rutracker\Family Guy Seasons 1-9\Season 1\01 Death has a Shadow.m4v
Format : MPEG-4
Codec ID : M4V
File size : 212 MiB
Duration : 22mn 32s
Overall bit rate : 1 317 Kbps
Movie name : Death Has a Shadow
Album : , 1
Part/Position : 1
Part/Total : 1
Track name/Position : 1
Track name/Total : 7
Performer : Family Guy
Genre : Comedy
Recorded date : 1999-01-31T08:00:00Z
Encoded date : UTC 2011-05-18 17:31:10
Tagged date : UTC 2011-05-21 07:23:44
Copyright : 1999 Twentieth Century Fox Film Corporation
Cover : Yes
tvsh : Family Guy
tvnn : FOX
tven : 101
tvsn : 1
tves : 1
desc : , - . , $150000.
ldes : , - . , $150000.
stik : 10
rtng : 0
cnID : 268515531
iTunEXTC : us-tv|TV-14|500|

Video
ID : 1
Format : AVC
Format/Info : Advanced Video Codec
Format profile : High@L3.1
Format settings, CABAC : Yes
Format settings, ReFrames : 3 frames
Codec ID : avc1
Codec ID/Info : Advanced Video Coding
Duration : 22mn 32s
Bit rate mode : Variable
Bit rate : 818 Kbps
Maximum bit rate : 5 153 Kbps
Width : 720 pixels
Height : 536 pixels
Display aspect ratio : 4:3
Frame rate mode : Constant
Frame rate : 23.976 fps
Color space : YUV
Chroma subsampling : 4:2:0
Bit depth : 8 bits
Scan type : Progressive
Bits/(Pixel*Frame) : 0.088
Stream size : 132 MiB (62%)
Writing library : x264 core 65 r999kMod cc51047
Encoding settings : cabac=1 / ref=3 / deblock=1:0:0 / analyse=0x3:0x133 / me=umh / subme=6 / psy_rd=1.0:0.0 / mixed_ref=1 / me_range=16 / chroma_me=1 / trellis=1 / 8x8dct=1 / cqm=0 / deadzone=21,11 / chroma_qp_offset=-2 / threads=2 / thread_queue=2 / nr=0 / decimate=1 / mbaff=0 / bframes=3 / b_pyramid=1 / b_adapt=1 / b_bias=0 / direct=1 / wpredb=1 / keyint=250 / keyint_min=25 / scenecut=40(pre) / rc=crf / crf=21.0000 / qcomp=0.60 / qpmin=10 / qpmax=51 / qpstep=4 / ip_ratio=1.40 / pb_ratio=1.30 / aq=1:1.00
Language : English
Encoded date : UTC 2011-05-18 17:31:10
Tagged date : UTC 2011-05-18 17:31:18

Audio #1
ID : 2
Format : AAC
Format/Info : Advanced Audio Codec
Format profile : LC
Codec ID : 40
Duration : 22mn 31s
Bit rate mode : Variable
Bit rate : 168 Kbps
Maximum bit rate : 219 Kbps
Channel(s) : 2 channels
Channel positions : Front: L R
Sampling rate : 48.0 KHz
Compression mode : Lossy
Stream size : 27.1 MiB (13%)
Title : 2x2
Language : Russian
Encoded date : UTC 2011-05-18 17:31:15
Tagged date : UTC 2011-05-18 17:31:18

Audio #2
ID : 3
Format : AAC
Format/Info : Advanced Audio Codec
Format profile : LC
Codec ID : 40
Duration : 22mn 32s
Bit rate mode : Variable
Bit rate : 154 Kbps
Maximum bit rate : 217 Kbps
Channel(s) : 2 channels
Channel positions : Front: L R
Sampling rate : 48.0 KHz
Compression mode : Lossy
Stream size : 24.8 MiB (12%)
Title : FiliZa Studio (filiza.ru)
Language : Russian
Encoded date : UTC 2011-05-18 17:31:16
Tagged date : UTC 2011-05-18 17:31:18

Audio #3
ID : 4
Format : AAC
Format/Info : Advanced Audio Codec
Format profile : LC
Codec ID : 40
Duration : 22mn 32s
Bit rate mode : Variable
Bit rate : 164 Kbps
Maximum bit rate : 220 Kbps
Channel(s) : 2 channels
Channel positions : Front: L R
Sampling rate : 48.0 KHz
Compression mode : Lossy
Stream size : 26.4 MiB (12%)
Language : English
Encoded date : UTC 2011-05-18 17:31:17
Tagged date : UTC 2011-05-18 17:31:18

Text #1
ID : 5
Format : Timed text
Muxing mode : sbtl
Codec ID : tx3g
Duration : 22mn 4s
Bit rate mode : Variable
Bit rate : 201 bps
Stream size : 32.4 KiB (0%)
Title : (c) NiFiGaSeBe!
Language : Russian
Encoded date : UTC 2011-05-18 17:31:18
Tagged date : UTC 2011-05-18 17:31:18

Text #2
ID : 6
Format : Timed text
Muxing mode : sbtl
Codec ID : tx3g
Duration : 21mn 49s
Bit rate mode : Variable
Bit rate : 118 bps
Stream size : 18.8 KiB (0%)
Language : English
Encoded date : UTC 2011-05-18 17:31:18
Tagged date : UTC 2011-05-18 17:31:18
: DVDRip
: M4V
: H.264
: 720x536 ~800kbps
1: Russian, AAC 48KHz stereo 160kbps
2: English, AAC 48KHz stereo 160kbps
: (1-13,17 ),
General
Complete name : F:\TORRENT\\rutracker\Family Guy [All seasons]\Season 2\01 Peter,Peter,Caviar.Eater.m4v
Format : MPEG-4
Codec ID : M4V
File size : 181 MiB
Duration : 22mn 36s
Overall bit rate : 1 119 Kbps
Movie name : Peter, Peter, Caviar Eater
Album/Performer : , 2
Part/Position : 1
Part/Total : 0
Track name/Position : 1
Track name/Total : 21
Performer : Family Guy
Genre : Comedy
Recorded date : 1999-09-23T07:00:00Z
Encoded date : UTC 2011-05-24 10:39:52
Tagged date : UTC 2011-05-25 16:24:59
Copyright : 1999-2000 Twentieth Century Fox Film Corporation
Cover : Yes
tvsh : Family Guy
tvnn : FOX
tven : 201
tvsn : 2
tves : 1
desc : Ҹ . 100 . , , .
ldes : Ҹ . 100 . , , . , .
stik : 10
rtng : 0
cnID : 268523849
iTunEXTC : us-tv|TV-14|500|

Video
ID : 1
Format : AVC
Format/Info : Advanced Video Codec
Format profile : High@L3.1
Format settings, CABAC : Yes
Format settings, ReFrames : 3 frames
Codec ID : avc1
Codec ID/Info : Advanced Video Coding
Duration : 22mn 36s
Bit rate mode : Variable
Bit rate : 760 Kbps
Maximum bit rate : 3 411 Kbps
Width : 720 pixels
Height : 536 pixels
Display aspect ratio : 4:3
Frame rate mode : Constant
Frame rate : 23.976 fps
Color space : YUV
Chroma subsampling : 4:2:0
Bit depth : 8 bits
Scan type : Progressive
Bits/(Pixel*Frame) : 0.082
Stream size : 123 MiB (68%)
Writing library : x264 core 65 r999kMod cc51047
Encoding settings : cabac=1 / ref=3 / deblock=1:0:0 / analyse=0x3:0x133 / me=umh / subme=6 / psy_rd=1.0:0.0 / mixed_ref=1 / me_range=16 / chroma_me=1 / trellis=1 / 8x8dct=1 / cqm=0 / deadzone=21,11 / chroma_qp_offset=-2 / threads=2 / thread_queue=2 / nr=0 / decimate=1 / mbaff=0 / bframes=3 / b_pyramid=1 / b_adapt=1 / b_bias=0 / direct=1 / wpredb=1 / keyint=250 / keyint_min=25 / scenecut=40(pre) / rc=crf / crf=21.0000 / qcomp=0.60 / qpmin=10 / qpmax=51 / qpstep=4 / ip_ratio=1.40 / pb_ratio=1.30 / aq=1:1.00
Language : English
Encoded date : UTC 2011-05-24 10:39:52
Tagged date : UTC 2011-05-24 10:39:56

Audio #1
ID : 2
Format : AAC
Format/Info : Advanced Audio Codec
Format profile : LC
Codec ID : 40
Duration : 22mn 34s
Bit rate mode : Variable
Bit rate : 165 Kbps
Maximum bit rate : 239 Kbps
Channel(s) : 2 channels
Channel positions : Front: L R
Sampling rate : 48.0 KHz
Compression mode : Lossy
Stream size : 26.6 MiB (15%)
Language : Russian
Encoded date : UTC 2011-05-24 10:39:55
Tagged date : UTC 2011-05-24 10:39:56

Audio #2
ID : 3
Format : AAC
Format/Info : Advanced Audio Codec
Format profile : LC
Codec ID : 40
Duration : 22mn 36s
Bit rate mode : Variable
Bit rate : 182 Kbps
Maximum bit rate : 229 Kbps
Channel(s) : 2 channels
Channel positions : Front: L R
Sampling rate : 48.0 KHz
Compression mode : Lossy
Stream size : 29.4 MiB (16%)
Language : English
Encoded date : UTC 2011-05-24 10:39:56
Tagged date : UTC 2011-05-24 10:39:56

Text #1
ID : 4
Format : Timed text
Muxing mode : sbtl
Codec ID : tx3g
Duration : 22mn 1s
Bit rate mode : Variable
Bit rate : 193 bps
Stream size : 31.2 KiB (0%)
Language : Russian
Encoded date : UTC 2011-05-25 16:18:37
Tagged date : UTC 2011-05-25 16:18:37

Text #2
ID : 5
Format : Timed text
Muxing mode : sbtl
Codec ID : tx3g
Duration : 21mn 53s
Bit rate mode : Variable
Bit rate : 109 bps
Stream size : 17.5 KiB (0%)
Language : English
Encoded date : UTC 2011-05-25 16:18:37
Tagged date : UTC 2011-05-25 16:18:37
contentID: 268523849
Copyright: 1999-2000 Twentieth Century Fox Film Corporation
Rating: 13
Long Description: Ҹ . 100 . , , . , .
Description: Ҹ . 100 . , , .
TV Season: 2
TV Episode ID: 201
TV Network: FOX
TV Episode #: 1
TV Show: Family Guy
Disk #: 1/0
Track #: 1/21
Release Date: 1999-09-23T07:00:00Z
Genre: Comedy
Album Artist: , 2
Artist: Family Guy
Name: Peter, Peter, Caviar Eater
: DVDRip
: M4V
: H.264
: 720x536 ~800kbps
1: Russian, AAC 48KHz stereo 160kbps
2: English, AAC 48KHz stereo 160kbps
: (22 ),
General
Complete name : F:\TORRENT\
utracker\Family Guy\Season 3\01 The Thin White Line.m4v
Format : MPEG-4
Codec ID : M4V
File size : 170 MiB
Duration : 22mn 23s
Overall bit rate : 1 060 Kbps
Movie name : The Thin White Line
Album : , 3
Part/Position : 3
Part/Total : 0
Track name/Position : 1
Track name/Total : 22
Performer : Family Guy
Genre : Comedy
Recorded date : 2001-07-11T07:00:00Z
Encoded date : UTC 2011-05-25 14:41:04
Tagged date : UTC 2011-06-03 09:00:30
Copyright : 2001-2002 Twentieth Century Fox Film Corporation.
Cover : Yes
tvsh : Family Guy
tvnn : FOX
tven : 301
tvsn : 3
tves : 1
desc : , - , , . , . .
ldes : , - , , . , . .
stik : 10
rtng : 0
cnID : 268501884
iTunEXTC : us-tv|TV-14|500|

Video
ID : 1
Format : AVC
Format/Info : Advanced Video Codec
Format profile : High@L3.1
Format settings, CABAC : Yes
Format settings, ReFrames : 3 frames
Codec ID : avc1
Codec ID/Info : Advanced Video Coding
Duration : 22mn 22s
Bit rate mode : Variable
Bit rate : 715 Kbps
Maximum bit rate : 3 810 Kbps
Width : 720 pixels
Height : 544 pixels
Display aspect ratio : 4:3
Frame rate mode : Constant
Frame rate : 25.000 fps
Color space : YUV
Chroma subsampling : 4:2:0
Bit depth : 8 bits
Scan type : Progressive
Bits/(Pixel*Frame) : 0.073
Stream size : 114 MiB (67%)
Writing library : x264 core 65 r999kMod cc51047
Encoding settings : cabac=1 / ref=3 / deblock=1:0:0 / analyse=0x3:0x133 / me=umh / subme=6 / psy_rd=1.0:0.0 / mixed_ref=1 / me_range=16 / chroma_me=1 / trellis=1 / 8x8dct=1 / cqm=0 / deadzone=21,11 / chroma_qp_offset=-2 / threads=2 / thread_queue=2 / nr=0 / decimate=1 / mbaff=0 / bframes=3 / b_pyramid=1 / b_adapt=1 / b_bias=0 / direct=1 / wpredb=1 / keyint=250 / keyint_min=25 / scenecut=40(pre) / rc=crf / crf=21.0000 / qcomp=0.60 / qpmin=10 / qpmax=51 / qpstep=4 / ip_ratio=1.40 / pb_ratio=1.30 / aq=1:1.00
Language : English
Encoded date : UTC 2011-05-25 14:41:04
Tagged date : UTC 2011-05-25 14:41:18

Audio #1
ID : 2
Format : AAC
Format/Info : Advanced Audio Codec
Format profile : LC
Codec ID : 40
Duration : 22mn 23s
Bit rate mode : Variable
Bit rate : 172 Kbps
Maximum bit rate : 217 Kbps
Channel(s) : 2 channels
Channel positions : Front: L R
Sampling rate : 48.0 KHz
Compression mode : Lossy
Stream size : 27.6 MiB (16%)
Language : Russian
Encoded date : UTC 2011-05-25 14:41:13
Tagged date : UTC 2011-05-25 14:41:18

Audio #2
ID : 3
Format : AAC
Format/Info : Advanced Audio Codec
Format profile : LC
Codec ID : 40
Duration : 22mn 22s
Bit rate mode : Variable
Bit rate : 161 Kbps
Maximum bit rate : 228 Kbps
Channel(s) : 2 channels
Channel positions : Front: L R
Sampling rate : 48.0 KHz
Compression mode : Lossy
Stream size : 25.8 MiB (15%)
Language : English
Encoded date : UTC 2011-05-25 14:41:15
Tagged date : UTC 2011-05-25 14:41:18

Text
ID : 4
Format : Timed text
Muxing mode : sbtl
Codec ID : tx3g
Duration : 21mn 39s
Bit rate mode : Variable
Bit rate : 96 bps
Stream size : 15.3 KiB (0%)
Language : English
Encoded date : UTC 2011-06-03 09:00:24
Tagged date : UTC 2011-06-03 09:00:24
contentID: 268501884
Copyright: 2001-2002 Twentieth Century Fox Film Corporation.
Rating: 13
Long Description: , - , , . , . .
Description: , - , , . , . .
TV Season: 3
TV Episode ID: 301
TV Network: FOX
TV Episode #: 1
TV Show: Family Guy
Disk #: 3/0
Track #: 1/22
Release Date: 2001-07-11T07:00:00Z
Genre: Comedy
Album: , 3
Artist: Family Guy
Name: The Thin White Line
: DVDRip
: M4V
: H.264
: 720x536 ~800kbps
1: Russian, AAC 48KHz stereo 160kbps
2: English, AAC 48KHz stereo 160kbps
:
General
Complete name : F:\family guy-relise\converter\01 North by North Quahog.m4v
Format : MPEG-4
Codec ID : M4V
File size : 167 MiB
Duration : 21mn 4s
Overall bit rate : 1 108 Kbps
Movie name : North by North Quahog
Album : , 4
Part/Position : 4
Part/Total : 0
Track name/Position : 1
Track name/Total : 28
Performer : Family Guy
Genre : Comedy
Recorded date : 2005-11-20T08:00:00Z
Encoded date : UTC 2011-06-02 13:46:16
Tagged date : UTC 2011-06-05 10:39:11
Copyright : 2005-2006 Twentieth Century Fox Film Corporation.
Cover : Yes
tvsh : Family Guy
tvnn : FOX
tven : 401
tvsn : 4
tves : 1
desc : , . , " ", , . , , , . .
ldes : , . , " ", , . , , , . .
stik : 10
rtng : 0
cnID : 268502051
iTunEXTC : us-tv|TV-14|500|

Video
ID : 1
Format : AVC
Format/Info : Advanced Video Codec
Format profile : High@L3.1
Format settings, CABAC : Yes
Format settings, ReFrames : 3 frames
Codec ID : avc1
Codec ID/Info : Advanced Video Coding
Duration : 21mn 4s
Bit rate mode : Variable
Bit rate : 772 Kbps
Maximum bit rate : 3 422 Kbps
Width : 720 pixels
Height : 536 pixels
Display aspect ratio : 4:3
Frame rate mode : Constant
Frame rate : 25.000 fps
Color space : YUV
Chroma subsampling : 4:2:0
Bit depth : 8 bits
Scan type : Progressive
Bits/(Pixel*Frame) : 0.080
Stream size : 116 MiB (70%)
Writing library : x264 core 65 r999kMod cc51047
Encoding settings : cabac=1 / ref=3 / deblock=1:0:0 / analyse=0x3:0x133 / me=umh / subme=6 / psy_rd=1.0:0.0 / mixed_ref=1 / me_range=16 / chroma_me=1 / trellis=1 / 8x8dct=1 / cqm=0 / deadzone=21,11 / chroma_qp_offset=-2 / threads=2 / thread_queue=2 / nr=0 / decimate=1 / mbaff=0 / bframes=3 / b_pyramid=1 / b_adapt=1 / b_bias=0 / direct=1 / wpredb=1 / keyint=250 / keyint_min=25 / scenecut=40(pre) / rc=crf / crf=21.0000 / qcomp=0.60 / qpmin=10 / qpmax=51 / qpstep=4 / ip_ratio=1.40 / pb_ratio=1.30 / aq=1:1.00
Language : English
Encoded date : UTC 2011-06-02 13:46:16
Tagged date : UTC 2011-06-02 13:46:26

Audio #1
ID : 2
Format : AAC
Format/Info : Advanced Audio Codec
Format profile : LC
Codec ID : 40
Duration : 21mn 4s
Bit rate mode : Variable
Bit rate : 158 Kbps
Maximum bit rate : 223 Kbps
Channel(s) : 2 channels
Channel positions : Front: L R
Sampling rate : 48.0 KHz
Compression mode : Lossy
Stream size : 23.8 MiB (14%)
Language : Russian
Encoded date : UTC 2011-06-02 13:46:23
Tagged date : UTC 2011-06-02 13:46:26

Audio #2
ID : 3
Format : AAC
Format/Info : Advanced Audio Codec
Format profile : LC
Codec ID : 40
Duration : 21mn 4s
Bit rate mode : Variable
Bit rate : 164 Kbps
Maximum bit rate : 222 Kbps
Channel(s) : 2 channels
Channel positions : Front: L R
Sampling rate : 48.0 KHz
Compression mode : Lossy
Stream size : 24.8 MiB (15%)
Language : English
Encoded date : UTC 2011-06-02 13:46:25
Tagged date : UTC 2011-06-02 13:46:26
contentID: 268502051
Copyright: 2005-2006 Twentieth Century Fox Film Corporation.
Rating: 13
Long Description: , . , " ", , . , , , . .
Description: , . , " ", , . , , , . .
TV Season: 4
TV Episode ID: 401
TV Network: FOX
TV Episode #: 1
TV Show: Family Guy
Disk #: 4/0
Track #: 1/28
Release Date: 2005-11-20T08:00:00Z
Genre: Comedy
Album: , 4
Artist: Family Guy
Name: North by North Quahog
: DVDRip
: M4V
: H.264
: 720x536 ~800kbps
1: Russian, AAC 48KHz stereo 160kbps
2: English, AAC 48KHz stereo 160kbps
:
General
Complete name : F:\TORRENT\
utracker\Family Guy\Season 5\01 Stewie Loves Lois.m4v
Format : MPEG-4
Codec ID : M4V
File size : 191 MiB
Duration : 21mn 49s
Overall bit rate : 1 226 Kbps
Movie name : Stewie Loves Lois
Album : , 5
Part/Position : 5
Part/Total : 0
Track name/Position : 1
Track name/Total : 18
Performer : Family Guy
Genre : Comedy
Recorded date : 2006-09-10T07:00:00Z
Encoded date : UTC 2011-06-04 12:12:46
Tagged date : UTC 2011-06-06 10:16:13
Copyright : 2006-2007 Twentieth Century Fox Film Corporation.
Cover : Yes
tvsh : Family Guy
tvnn : FOX
tven : 501
tvsn : 5
tves : 1
desc : , , , .
ldes : , , , . , , , . , .
stik : 10
rtng : 0
cnID : 268502132
iTunEXTC : us-tv|TV-14|500|

Video
ID : 1
Format : AVC
Format/Info : Advanced Video Codec
Format profile : High@L3.1
Format settings, CABAC : Yes
Format settings, ReFrames : 3 frames
Codec ID : avc1
Codec ID/Info : Advanced Video Coding
Duration : 21mn 48s
Bit rate mode : Variable
Bit rate : 751 Kbps
Maximum bit rate : 7 369 Kbps
Width : 720 pixels
Height : 536 pixels
Display aspect ratio : 4:3
Frame rate mode : Constant
Frame rate : 23.976 fps
Color space : YUV
Chroma subsampling : 4:2:0
Bit depth : 8 bits
Scan type : Progressive
Bits/(Pixel*Frame) : 0.081
Stream size : 117 MiB (61%)
Writing library : x264 core 65 r999kMod cc51047
Encoding settings : cabac=1 / ref=3 / deblock=1:0:0 / analyse=0x3:0x133 / me=umh / subme=6 / psy_rd=1.0:0.0 / mixed_ref=1 / me_range=16 / chroma_me=1 / trellis=1 / 8x8dct=1 / cqm=0 / deadzone=21,11 / chroma_qp_offset=-2 / threads=2 / thread_queue=2 / nr=0 / decimate=1 / mbaff=0 / bframes=3 / b_pyramid=1 / b_adapt=1 / b_bias=0 / direct=1 / wpredb=1 / keyint=250 / keyint_min=25 / scenecut=40(pre) / rc=crf / crf=21.0000 / qcomp=0.60 / qpmin=10 / qpmax=51 / qpstep=4 / ip_ratio=1.40 / pb_ratio=1.30 / aq=1:1.00
Language : English
Encoded date : UTC 2011-06-04 12:12:46
Tagged date : UTC 2011-06-04 12:12:54

Audio #1
ID : 2
Format : AAC
Format/Info : Advanced Audio Codec
Format profile : LC
Codec ID : 40
Duration : 21mn 49s
Bit rate mode : Variable
Bit rate : 186 Kbps
Maximum bit rate : 213 Kbps
Channel(s) : 2 channels
Channel positions : Front: L R
Sampling rate : 48.0 KHz
Compression mode : Lossy
Stream size : 29.0 MiB (15%)
Title : 2x2
Language : Russian
Encoded date : UTC 2011-06-04 12:12:50
Tagged date : UTC 2011-06-04 12:12:54

Audio #2
ID : 3
Format : AAC
Format/Info : Advanced Audio Codec
Format profile : LC
Codec ID : 40
Duration : 21mn 48s
Bit rate mode : Variable
Bit rate : 136 Kbps
Maximum bit rate : 221 Kbps
Channel(s) : 2 channels
Channel positions : Front: L R
Sampling rate : 48.0 KHz
Compression mode : Lossy
Stream size : 21.3 MiB (11%)
Title : FiliZa Studio (filiza.ru)
Language : Russian
Encoded date : UTC 2011-06-04 12:12:52
Tagged date : UTC 2011-06-04 12:12:54

Audio #3
ID : 4
Format : AAC
Format/Info : Advanced Audio Codec
Format profile : LC
Codec ID : 40
Duration : 21mn 48s
Bit rate mode : Variable
Bit rate : 144 Kbps
Maximum bit rate : 229 Kbps
Channel(s) : 2 channels
Channel positions : Front: L R
Sampling rate : 48.0 KHz
Compression mode : Lossy
Stream size : 22.4 MiB (12%)
Language : English
Encoded date : UTC 2011-06-04 12:12:53
Tagged date : UTC 2011-06-04 12:12:54

Text
ID : 5
Format : Timed text
Muxing mode : sbtl
Codec ID : tx3g
Duration : 21mn 24s
Bit rate mode : Variable
Bit rate : 179 bps
Stream size : 28.0 KiB (0%)
Title : familyguyrussia.com | (c) NiFiGaSeBe!
Language : Russian
Encoded date : UTC 2011-06-04 12:12:54
Tagged date : UTC 2011-06-04 12:12:54
contentID: 268502132
Copyright: 2006-2007 Twentieth Century Fox Film Corporation.
Rating: 13
Long Description: , , , . , , , . , .
Description: , , , .
TV Season: 5
TV Episode ID: 501
TV Network: FOX
TV Episode #: 1
TV Show: Family Guy
Disk #: 5/0
Track #: 1/18
Release Date: 2006-09-10T07:00:00Z
Genre: Comedy
Album: , 5
Artist: Family Guy
Name: Stewie Loves Lois
: DVDRip
: M4V
: H.264
: 720x536 ~800kbps
1: Russian, AAC 48KHz stereo 160kbps
2: English, AAC 48KHz stereo 160kbps
: ,
General
Complete name : F:\TORRENT\
utracker\Family Guy\Season 6\01 Blue Harvest.m4v
Format : MPEG-4
Codec ID : M4V
File size : 424 MiB
Duration : 47mn 36s
Overall bit rate : 1 245 Kbps
Movie name : Blue Harvest
Album : , 6
Part/Position : 6
Part/Total : 0
Track name/Position : 1
Track name/Total : 12
Performer : Family Guy
Genre : Comedy
Recorded date : 2008-01-15T08:00:00Z
Encoded date : UTC 2011-06-05 12:23:05
Tagged date : UTC 2011-06-06 16:17:58
Copyright : 2007-2008 Twentieth Century Fox Film Corporation.
Cover : Yes
tvsh : Family Guy
tvnn : FOX
tven : 601
tvsn : 6
tves : 1
desc : . IV. . () (), C-3PO () R2-D2 () , .
ldes : . IV. . () (), C-3PO () R2-D2 () , . (), (), () - (), C, .
stik : 10
rtng : 0
cnID : 273127113
iTunEXTC : us-tv|TV-14|500|

Video
ID : 1
Format : AVC
Format/Info : Advanced Video Codec
Format profile : High@L3.1
Format settings, CABAC : Yes
Format settings, ReFrames : 3 frames
Codec ID : avc1
Codec ID/Info : Advanced Video Coding
Duration : 47mn 36s
Bit rate mode : Variable
Bit rate : 741 Kbps
Maximum bit rate : 3 984 Kbps
Width : 720 pixels
Height : 528 pixels
Display aspect ratio : 4:3
Frame rate mode : Constant
Frame rate : 23.976 fps
Original frame rate : 25.000 fps
Color space : YUV
Chroma subsampling : 4:2:0
Bit depth : 8 bits
Scan type : Progressive
Bits/(Pixel*Frame) : 0.081
Stream size : 252 MiB (60%)
Writing library : x264 core 65 r999kMod cc51047
Encoding settings : cabac=1 / ref=3 / deblock=1:0:0 / analyse=0x3:0x133 / me=umh / subme=6 / psy_rd=1.0:0.0 / mixed_ref=1 / me_range=16 / chroma_me=1 / trellis=1 / 8x8dct=1 / cqm=0 / deadzone=21,11 / chroma_qp_offset=-2 / threads=2 / thread_queue=2 / nr=0 / decimate=1 / mbaff=0 / bframes=3 / b_pyramid=1 / b_adapt=1 / b_bias=0 / direct=1 / wpredb=1 / keyint=250 / keyint_min=25 / scenecut=40(pre) / rc=crf / crf=21.0000 / qcomp=0.60 / qpmin=10 / qpmax=51 / qpstep=4 / ip_ratio=1.40 / pb_ratio=1.30 / aq=1:1.00
Language : English
Encoded date : UTC 2011-06-05 12:23:05
Tagged date : UTC 2011-06-05 12:23:24

Audio #1
ID : 2
Format : AAC
Format/Info : Advanced Audio Codec
Format profile : LC
Codec ID : 40
Duration : 47mn 34s
Bit rate mode : Variable
Bit rate : 164 Kbps
Maximum bit rate : 214 Kbps
Channel(s) : 2 channels
Channel positions : Front: L R
Sampling rate : 48.0 KHz
Compression mode : Lossy
Stream size : 55.8 MiB (13%)
Title : DD 2.0 (2x2 + FiliZa Studio) by MIF
Language : Russian
Encoded date : UTC 2011-06-05 12:23:15
Tagged date : UTC 2011-06-05 12:23:24

Audio #2
ID : 3
Format : AAC
Format/Info : Advanced Audio Codec
Format profile : LC
Codec ID : 40
Duration : 47mn 34s
Bit rate mode : Variable
Bit rate : 162 Kbps
Maximum bit rate : 222 Kbps
Channel(s) : 2 channels
Channel positions : Front: L R
Sampling rate : 48.0 KHz
Compression mode : Lossy
Stream size : 55.2 MiB (13%)
Title : FiliZa Studio (filiza.ru)
Language : Russian
Encoded date : UTC 2011-06-05 12:23:17
Tagged date : UTC 2011-06-05 12:23:24

Audio #3
ID : 4
Format : AAC
Format/Info : Advanced Audio Codec
Format profile : LC
Codec ID : 40
Duration : 47mn 34s
Bit rate mode : Variable
Bit rate : 167 Kbps
Maximum bit rate : 231 Kbps
Channel(s) : 2 channels
Channel positions : Front: L R
Sampling rate : 48.0 KHz
Compression mode : Lossy
Stream size : 56.9 MiB (13%)
Language : English
Encoded date : UTC 2011-06-05 12:23:21
Tagged date : UTC 2011-06-05 12:23:24

Text #1
ID : 5
Format : Timed text
Muxing mode : sbtl
Codec ID : tx3g
Duration : 46mn 53s
Bit rate mode : Variable
Bit rate : 147 bps
Stream size : 50.4 KiB (0%)
Title : familyguyrussia.com | (c) Luigi, NiFiGaSeBe!
Language : Russian
Encoded date : UTC 2011-06-05 12:23:24
Tagged date : UTC 2011-06-05 12:23:24

Text #2
ID : 6
Format : Timed text
Muxing mode : sbtl
Codec ID : tx3g
Duration : 47mn 34s
Bit rate mode : Variable
Bit rate : 102 bps
Stream size : 35.5 KiB (0%)
Language : English
Encoded date : UTC 2011-06-05 12:23:24
Tagged date : UTC 2011-06-05 12:23:24
contentID: 273127113
Copyright: 2007-2008 Twentieth Century Fox Film Corporation.
Rating: 13
Long Description: . IV. . () (), C-3PO () R2-D2 () , . (), (), () - (), C, .
Description: . IV. . () (), C-3PO () R2-D2 () , .
TV Season: 6
TV Episode ID: 601
TV Network: FOX
TV Episode #: 1
TV Show: Family Guy
Disk #: 6/0
Track #: 1/12
Release Date: 2008-01-15T08:00:00Z
Genre: Comedy
Album: , 6
Artist: Family Guy
Name: Blue Harvest
: DVDRip
: M4V
: H.264
: 720x536 ~800kbps
1: Russian, AAC 48KHz stereo 160kbps
2: English, AAC 48KHz stereo 160kbps
: ,
General
Complete name : F:\TORRENT\
utracker\Family Guy\Season 7\01 Love, Blactually.m4v
Format : MPEG-4
Codec ID : M4V
File size : 237 MiB
Duration : 21mn 51s
Overall bit rate : 1 513 Kbps
Movie name : Love, Blactually
Album : , 7
Part/Position : 7
Part/Total : 0
Track name/Position : 1
Track name/Total : 16
Performer : Family Guy
Genre : Comedy
Recorded date : 2008-09-28T07:00:00Z
Encoded date : UTC 2011-06-05 18:13:06
Tagged date : UTC 2011-06-07 14:42:06
Copyright : 2008-2009 Twentieth Century Fox Film Corporation.
Cover : Yes
tvsh : Family Guy
tvnn : FOX
tven : 701
tvsn : 7
tves : 1
desc : . .
ldes : . .
stik : 10
rtng : 0
cnID : 291139039
iTunEXTC : us-tv|TV-14|500|

Video
ID : 1
Format : AVC
Format/Info : Advanced Video Codec
Format profile : Main@L3.1
Format settings, CABAC : No
Format settings, ReFrames : 3 frames
Codec ID : avc1
Codec ID/Info : Advanced Video Coding
Duration : 21mn 51s
Bit rate mode : Variable
Bit rate : 1 211 Kbps
Maximum bit rate : 18.9 Mbps
Width : 720 pixels
Height : 536 pixels
Display aspect ratio : 4:3
Frame rate mode : Constant
Frame rate : 23.976 fps
Color space : YUV
Chroma subsampling : 4:2:0
Bit depth : 8 bits
Scan type : Progressive
Bits/(Pixel*Frame) : 0.131
Stream size : 189 MiB (80%)
Writing library : x264 core 65 r999kMod cc51047
Encoding settings : cabac=0 / ref=3 / deblock=0:0:0 / analyse=0x1:0x130 / me=hex / subme=4 / psy_rd=0.0:0.0 / mixed_ref=1 / me_range=16 / chroma_me=1 / trellis=0 / 8x8dct=0 / cqm=0 / deadzone=21,11 / chroma_qp_offset=0 / threads=2 / thread_queue=2 / nr=0 / decimate=1 / mbaff=0 / bframes=1 / b_pyramid=0 / b_adapt=1 / b_bias=0 / direct=3 / wpredb=1 / keyint=250 / keyint_min=25 / scenecut=40(pre) / rc=2pass / bitrate=1211 / ratetol=1.0 / qcomp=0.60 / qpmin=10 / qpmax=51 / qpstep=4 / cplxblur=20.0 / qblur=0.5 / ip_ratio=1.40 / pb_ratio=1.30 / aq=1:1.00
Language : English
Encoded date : UTC 2011-06-05 18:13:06
Tagged date : UTC 2011-06-05 18:13:13

Audio #1
ID : 2
Format : AAC
Format/Info : Advanced Audio Codec
Format profile : LC
Codec ID : 40
Duration : 21mn 51s
Bit rate mode : Variable
Bit rate : 144 Kbps
Maximum bit rate : 240 Kbps
Channel(s) : 2 channels
Channel positions : Front: L R
Sampling rate : 48.0 KHz
Compression mode : Lossy
Stream size : 22.8 MiB (10%)
Title : FiliZa Studio (filiza.ru)
Language : Russian
Encoded date : UTC 2011-06-05 18:13:10
Tagged date : UTC 2011-06-05 18:13:13

Audio #2
ID : 3
Format : AAC
Format/Info : Advanced Audio Codec
Format profile : LC
Codec ID : 40
Duration : 21mn 51s
Bit rate mode : Variable
Bit rate : 144 Kbps
Maximum bit rate : 240 Kbps
Channel(s) : 2 channels
Channel positions : Front: L R
Sampling rate : 48.0 KHz
Compression mode : Lossy
Stream size : 22.9 MiB (10%)
Language : English
Encoded date : UTC 2011-06-05 18:13:12
Tagged date : UTC 2011-06-05 18:13:13

Text #1
ID : 4
Format : Timed text
Muxing mode : sbtl
Codec ID : tx3g
Duration : 21mn 12s
Bit rate mode : Variable
Bit rate : 164 bps
Stream size : 25.5 KiB (0%)
Title : familyguyrussia.com | (c) lUiGi
Language : Russian
Encoded date : UTC 2011-06-05 18:13:13
Tagged date : UTC 2011-06-05 18:13:13

Text #2
ID : 5
Format : Timed text
Muxing mode : sbtl
Codec ID : tx3g
Duration : 21mn 12s
Bit rate mode : Variable
Bit rate : 122 bps
Stream size : 19.0 KiB (0%)
Language : English
Encoded date : UTC 2011-06-05 18:13:13
Tagged date : UTC 2011-06-05 18:13:13
contentID: 291139039
Copyright: 2008-2009 Twentieth Century Fox Film Corporation.
Rating: 13
Long Description: . .
Description: . .
TV Season: 7
TV Episode ID: 701
TV Network: FOX
TV Episode #: 1
TV Show: Family Guy
Disk #: 7/0
Track #: 1/16
Release Date: 2008-09-28T07:00:00Z
Genre: Comedy
Album: , 7
Artist: Family Guy
Name: Love, Blactually
: WEB-DL
: M4V
: H.264
: 960x720 ~2500kbps
1: Russian, AAC 48KHz stereo 160kbps
2: English, AAC 48KHz stereo 160kbps
:
General
Complete name : F:\TORRENT\
utracker\Family Guy\Season 8\01 Road to the Multiverse.m4v
Format : MPEG-4
Codec ID : M4V
File size : 442 MiB
Duration : 21mn 52s
Overall bit rate : 2 821 Kbps
Movie name : Road to the Multiverse
Album : , 8
Part/Position : 8
Part/Total : 0
Track name/Position : 1
Track name/Total : 21
Performer : Family Guy
Genre : Comedy
Recorded date : 2009-09-27T07:00:00Z
Encoded date : UTC 2011-06-06 15:27:05
Tagged date : UTC 2011-06-09 07:18:59
Copyright : 2009-2010 Twentieth Century Fox Film Corporation.
Cover : Yes
tvsh : Family Guy
tvnn : FOX
tven : 801
tvsn : 8
tves : 1
desc : , , , -, , ..
ldes : , , , -, , ..
hdvd : 1
stik : 10
rtng : 0
cnID : 327504243
iTunEXTC : us-tv|TV-14|500|

Video
ID : 1
Format : AVC
Format/Info : Advanced Video Codec
Format profile : Main@L3.1
Format settings, CABAC : No
Format settings, ReFrames : 2 frames
Format settings, GOP : M=2, N=29
Codec ID : avc1
Codec ID/Info : Advanced Video Coding
Duration : 21mn 52s
Bit rate mode : Variable
Bit rate : 2 508 Kbps
Maximum bit rate : 14.2 Mbps
Width : 960 pixels
Height : 720 pixels
Display aspect ratio : 4:3
Frame rate mode : Constant
Frame rate : 23.976 fps
Color space : YUV
Chroma subsampling : 4:2:0
Bit depth : 8 bits
Scan type : Progressive
Bits/(Pixel*Frame) : 0.151
Stream size : 392 MiB (89%)
Language : English
Encoded date : UTC 2011-06-06 15:27:05
Tagged date : UTC 2011-06-06 15:27:30
Color primaries : BT.709-5, BT.1361, IEC 61966-2-4, SMPTE RP177
Transfer characteristics : BT.709-5, BT.1361
Matrix coefficients : BT.709-5, BT.1361, IEC 61966-2-4 709, SMPTE RP177

Audio #1
ID : 2
Format : AAC
Format/Info : Advanced Audio Codec
Format profile : LC
Codec ID : 40
Duration : 21mn 52s
Bit rate mode : Variable
Bit rate : 150 Kbps
Maximum bit rate : 222 Kbps
Channel(s) : 2 channels
Channel positions : Front: L R
Sampling rate : 48.0 KHz
Compression mode : Lossy
Stream size : 23.4 MiB (5%)
Title : FiliZa Studio (filiza.ru)
Language : Russian
Encoded date : UTC 2011-06-06 15:27:28
Tagged date : UTC 2011-06-06 15:27:30

Audio #2
ID : 3
Format : AAC
Format/Info : Advanced Audio Codec
Format profile : LC
Codec ID : 40
Duration : 21mn 52s
Bit rate mode : Variable
Bit rate : 155 Kbps
Maximum bit rate : 220 Kbps
Channel(s) : 2 channels
Channel positions : Front: L R
Sampling rate : 48.0 KHz
Compression mode : Lossy
Stream size : 24.3 MiB (6%)
Language : English
Encoded date : UTC 2011-06-06 15:27:29
Tagged date : UTC 2011-06-06 15:27:30
contentID: 327504243
Copyright: 2009-2010 Twentieth Century Fox Film Corporation.
Rating: 13
Long Description: , , , -, , ..
Description: , , , -, , ..
TV Season: 8
TV Episode ID: 801
TV Network: FOX
TV Episode #: 1
TV Show: Family Guy
Disk #: 8/0
Track #: 1/21
Release Date: 2009-09-27T07:00:00Z
Genre: Comedy
Album: , 8
Artist: Family Guy
Name: Road to the Multiverse
: WEB-DL
: M4V
: H.264
: 1280720 ~3500kbps
1: Russian, AAC 48KHz stereo 160kbps
2: English, AAC 48KHz stereo 160kbps
:
General
Complete name : F:\TORRENT\
utracker\Family Guy\Season 9\01 And Then There Were Fewer.m4v
Format : MPEG-4
Codec ID : M4V
File size : 1.31 GiB
Duration : 49mn 7s
Overall bit rate : 3 823 Kbps
Movie name : And Then There Were Fewer
Album : , 9
Part/Position : 9
Part/Total : 0
Track name/Position : 1
Track name/Total : 18
Performer : Family Guy
Genre : Comedy
Recorded date : 2010-09-26T07:00:00Z
Encoded date : UTC 2011-06-07 15:25:11
Tagged date : UTC 2011-06-09 19:09:31
Copyright : 2010-2011 Twentieth Century Fox Film Corporation.
Cover : Yes
tvsh : Family Guy
tvnn : FOX
tven : 901
tvsn : 9
tves : 1
desc : . , , , .
ldes : . , , , .
hdvd : 1
stik : 10
rtng : 0
cnID : 388698836
iTunEXTC : us-tv|TV-14|500|

Video
ID : 1
Format : AVC
Format/Info : Advanced Video Codec
Format profile : High@L3.1
Format settings, CABAC : No
Format settings, ReFrames : 2 frames
Codec ID : avc1
Codec ID/Info : Advanced Video Coding
Duration : 49mn 7s
Bit rate mode : Variable
Bit rate : 3 491 Kbps
Maximum bit rate : 14.0 Mbps
Width : 1 280 pixels
Height : 720 pixels
Display aspect ratio : 16:9
Frame rate mode : Constant
Frame rate : 23.976 fps
Color space : YUV
Chroma subsampling : 4:2:0
Bit depth : 8 bits
Scan type : Progressive
Bits/(Pixel*Frame) : 0.158
Stream size : 1.20 GiB (91%)
Language : English
Encoded date : UTC 2011-06-07 15:25:11
Tagged date : UTC 2011-06-07 15:26:45
Color primaries : BT.709-5, BT.1361, IEC 61966-2-4, SMPTE RP177
Transfer characteristics : BT.709-5, BT.1361
Matrix coefficients : BT.709-5, BT.1361, IEC 61966-2-4 709, SMPTE RP177

Audio #1
ID : 2
Format : AAC
Format/Info : Advanced Audio Codec
Format profile : LC
Codec ID : 40
Duration : 49mn 7s
Bit rate mode : Variable
Bit rate : 159 Kbps
Maximum bit rate : 225 Kbps
Channel(s) : 2 channels
Channel positions : Front: L R
Sampling rate : 48.0 KHz
Compression mode : Lossy
Stream size : 55.9 MiB (4%)
Title : FiliZa Studio (filiza.ru)
Language : Russian
Encoded date : UTC 2011-06-07 15:26:37
Tagged date : UTC 2011-06-07 15:26:45

Audio #2
ID : 3
Format : AAC
Format/Info : Advanced Audio Codec
Format profile : LC
Codec ID : 40
Duration : 49mn 7s
Bit rate mode : Variable
Bit rate : 167 Kbps
Maximum bit rate : 228 Kbps
Channel(s) : 2 channels
Channel positions : Front: L R
Sampling rate : 48.0 KHz
Compression mode : Lossy
Stream size : 58.5 MiB (4%)
Language : English
Encoded date : UTC 2011-06-07 15:26:41
Tagged date : UTC 2011-06-07 15:26:45
contentID: 388698836
Copyright: 2010-2011 Twentieth Century Fox Film Corporation.
Rating: 13
Long Description: . , , , .
Description: . , , , .
TV Season: 9
TV Episode ID: 901
TV Network: FOX
TV Episode #: 1
TV Show: Family Guy
Disk #: 9/0
Track #: 1/18
Release Date: 2010-09-26T07:00:00Z
Genre: Comedy
Album: , 9
Artist: Family Guy
Name: And Then There Were Fewer
: WEB-DL
: M4V
: H.264
: 1280720 ~3500kbps
1: Russian, AAC 48KHz stereo 160kbps
2: English, AAC 48KHz stereo 160kbps
:
General
Complete name : D:\TORRENT\Family Guy\Season 10\01 Lottery Fever (HD).m4v
Format : MPEG-4
Codec ID : M4V
File size : 452 MiB
Duration : 21mn 36s
Overall bit rate mode : Variable
Overall bit rate : 2 927 Kbps
Movie name : Lottery Fever
Album : , 10
Part/Position : 10
Part/Total : 0
Track name/Position : 1
Track name/Total : 0
Performer : Family Guy
Genre : Comedy
Recorded date : 2011-09-25T07:00:00Z
Encoded date : UTC 2011-12-15 09:03:08
Tagged date : UTC 2011-12-16 09:03:19
Writing application : MkvToMp4 [www.mkvtomp4.ru] version 0.217
Copyright : 2011-2012 Twentieth Century Fox Film
Cover : Yes
tvsh : Family Guy
tvnn : FOX
tven : 1001
tvsn : 10
tves : 1
soar : Family Guy
soal : , 10
sosn : Family Guy
desc : .
ldes : .
hdvd : 1
stik : 10
cnID : 467938955
iTunEXTC : us-tv|TV-PG|400|

Video
ID : 1
Format : AVC
Format/Info : Advanced Video Codec
Format profile : High@L3.1
Format settings, CABAC : No
Format settings, ReFrames : 2 frames
Codec ID : avc1
Codec ID/Info : Advanced Video Coding
Duration : 21mn 36s
Bit rate : 2 639 Kbps
Maximum bit rate : 14.9 Mbps
Width : 1 280 pixels
Height : 720 pixels
Display aspect ratio : 16:9
Frame rate mode : Constant
Frame rate : 23.976 fps
Color space : YUV
Chroma subsampling : 4:2:0
Bit depth : 8 bits
Scan type : Progressive
Bits/(Pixel*Frame) : 0.119
Stream size : 408 MiB (90%)
Language : English
Encoded date : UTC 2011-12-15 09:03:08
Tagged date : UTC 2011-12-15 09:03:15
Color primaries : BT.709-5, BT.1361, IEC 61966-2-4, SMPTE RP177
Transfer characteristics : BT.709-5, BT.1361
Matrix coefficients : BT.709-5, BT.1361, IEC 61966-2-4 709, SMPTE RP177

Audio #1
ID : 2
Format : AAC
Format/Info : Advanced Audio Codec
Format profile : LC
Codec ID : 40
Duration : 21mn 36s
Bit rate mode : Variable
Bit rate : 144 Kbps
Maximum bit rate : 223 Kbps
Channel(s) : 2 channels
Channel positions : Front: L R
Sampling rate : 48.0 KHz
Compression mode : Lossy
Stream size : 22.2 MiB (5%)
Title : Filiza Studio
Language : Russian
Encoded date : UTC 2011-12-15 09:03:15
Tagged date : UTC 2011-12-15 09:03:15

Audio #2
ID : 3
Format : AAC
Format/Info : Advanced Audio Codec
Format profile : LC
Codec ID : 40
Duration : 21mn 36s
Bit rate mode : Variable
Bit rate : 138 Kbps
Maximum bit rate : 222 Kbps
Channel(s) : 2 channels
Channel positions : Front: L R
Sampling rate : 48.0 KHz
Compression mode : Lossy
Stream size : 21.3 MiB (5%)
Title : Original
Language : English
Encoded date : UTC 2011-12-15 09:03:15
Tagged date : UTC 2011-12-15 09:03:15

10 (1-8 )


 ·  , , FAQ-
:  [ 26--2012 08:35 ]

  

.torrent

.torrent 236 KB


: 45.05 GB
(hash) : 40c373ef4e3543ad2bb63bf45676b47eb301262a
··
...

Family Guy . !

!