Скачать через торрент Тролль Гнёт Ель - Дискография бесплатно русская версия torrent активатор

Если у вас наблюдаются проблемы со скриншотами, переходом по ссылками, скачиванием торрентов - проблемы в блокировщике рекламы AdBlock. #хорошегоДня!


Статистика раздачи
Размер:  1.81 GB   |    Зарегистрирован:  5 лет 5 месяцев   |    .torrent скачан:  60 раз   |   
Раздают:  1  
   
Загрузка...
 
Автор Сообщение

Galfimbul

avatar Galfimbul



Тролль Гнёт Ель - Дискография
Страна: Россия || Период: 2003 - 2011 || Жанр: Beer Folk || Тексты: Все || || Обложки: Да || Продолжительность: 04:06:00
Кодек: ALAC || Тип рипа : tracks || Программа-риповщик : foobar2000 + iTunes (lossless) || Битрейт: lossless
Тролль Гнёт Ель — российская фолк-рок-группа из Санкт-Петербурга.

Основа творчества «Тролль гнёт ель» (англоязычный вариант "Troll Bends Fir") — скандинавские фольклорные мелодии, стилизованные под хард-роковые риффы. Тексты на русском языке также в точности повторяют стилистику народных — забавные истории со средневековыми персонажами, весёлыми гномами и алчными троллями. Сами участники определяют свой стиль как «пивной фолк».

Текущие участники:

Константин «Тролль» Румянцев — гитара, вокал
Мария «Джетра» Леонова — вистл, вокал
Сергей «Скъёльди» Немтинов — бас-гитара
Алексей «Элиас» Местер — скрипка
Алексей "Алекс" Семенов — ударные


Другие участники:
Анна Фомина — скрипка — 2002—2007
Борис Сенькин — бас — 2000—2007
Никита Петров — ударные — 2004—2006
Сергей Воеводин — ударные — 2000—2004
Сергей Кувин — скрипка, мандолина
Рустам Маминов — скрипка
Сергей Рубцов — Ударные

01. Верная Пинта (03:49)
02. Еловый корень (02:52)
03. Хорошо быть пивоваром (03:43)
04. Гудбруд Гудбрудсон советует (03:29)
05. Тролль Гнёт Ель (02:57)
06. Забытые гимны оленей (03:04)
07. Гутен таг! (03:15)
08. Мой хмельной мёд (03:06)
09. Браги (02:50)
10. Брюнхильд моя Брюнхильд (03:57)
11. Хо! (03:02)
01. Земляничный берсерк (03:39)
02. Веселая дурнушка (03:45)
03. Вдовья печаль (02:53)
04. Сельдяной король (03:14)
05. Тролльборода (03:01)
06. Пивная стрекоза (03:05)
07. Паб «Холостяк» (03:14)
08. Оке булочник (03:15)
09. Праздник Похмеляйнен (04:26)
10. Крутобокая (03:07)
11. Лунные гульдены (02:58)
12. Конец осени (02:57)
13. Еловый корень (Бонус) (03:00)
14. Верная Пинта (Бонус) (03:43)
01. Фольклорная-застольная (04:07)
02. Конунг Хмель (05:46)
03. Пивоварня Ульва (04:53)
04. Мой дед говорил... (03:58)
05. Башмаки Хель (04:26)
06. Сырный штурм (04:00)
07. Сильматроллион (03:52)
08. Каменный эль (03:09)
09. Скальд (07:06)
10. Фольклорная-застольная (труЪ) (01:32)
11. Пивоварня Ульва (Бонус) (03:31)
01. Пивная келья (04:41)
02. Враг мой (04:41)
03. Порнополька (03:56)
04. Колыбельная из-под бревна (03:31)
05. Вальс на костях (04:14)
06. Не за что винить... (03:17)
07. Райнхайтсгебот 1516 (03:16)
08. Ингрид (03:43)
09. Недоконунг (03:48)
01. Братья во Хмелю (03:44)
02. Жопотряс (04:35)
03. Октоберфест (05:23)
04. Кружечка Тёмного Эля (03:57)
05. Поймай лосося! (02:07)
01. Хмъёльнир (04:06)
02. Beer Mantra (04:41)
03. Ave Celia! (04:28)
04. Камаринская (03:35)
05. Восстание Троллей (03:39)
01. Братья во Хмелю (03:44)
02. Хмъёльнир (04:06)
03. Beer Mantra (04:42)
04. Жопотряс (04:35)
05. Октоберфест (05:23)
06. Камаринская (03:46)
07. Ave Celia! (04:29)
08. Поймай лосося! (02:08)
09. Кружечка Тёмного Эля (03:58)
10. Восстание Троллей (03:44)
11. Хумппа по Соседству (feat.Jonne Järvelä from Korpiklaani) (05:18)
  
fooCDtect - foobar2000 + auCDtect, baralgin.

auCDtect: CD records authenticity detector, version 0.8.2Copyright (c) 2004 Oleg Berngardt. All rights reserved.Copyright (c) 2004 Alexander Djourik. All rights reserved.

mode: 0

=========================================== Track: Браги Quality: CDDA 100%=========================================== Track: Брюнхильд моя Брюнхильд Quality: CDDA 100%=========================================== Track: Верная Пинта Quality: CDDA 100%=========================================== Track: Гудбруд Гудбрудсон советует Quality: CDDA 100%=========================================== Track: Гутен таг! Quality: CDDA 100%=========================================== Track: Еловый корень Quality: CDDA 99%=========================================== Track: Забытые гимны оленей Quality: CDDA 100%=========================================== Track: Мой хмельной мёд Quality: CDDA 100%=========================================== Track: Тролль Гнёт Ель Quality: CDDA 100%=========================================== Track: Хо! Quality: CDDA 99%=========================================== Track: Хорошо быть пивоваром Quality: CDDA 100%=========================================== Track: Вдовья печаль Quality: CDDA 100%=========================================== Track: Верная Пинта (Бонус) Quality: CDDA 100%=========================================== Track: Веселая дурнушка Quality: CDDA 100%=========================================== Track: Еловый корень (Бонус) Quality: CDDA 100%=========================================== Track: Земляничный берсерк Quality: CDDA 100%=========================================== Track: Конец осени Quality: CDDA 99%=========================================== Track: Крутобокая Quality: CDDA 100%=========================================== Track: Лунные гульдены Quality: CDDA 99%=========================================== Track: Оке булочник Quality: CDDA 100%=========================================== Track: Паб «Холостяк» Quality: CDDA 100%=========================================== Track: Пивная стрекоза Quality: CDDA 100%=========================================== Track: Праздник Похмеляйнен Quality: CDDA 100%=========================================== Track: Сельдяной король Quality: CDDA 100%=========================================== Track: Тролльборода Quality: CDDA 100%=========================================== Track: Башмаки Хель Quality: CDDA 100%=========================================== Track: Каменный эль Quality: CDDA 100%=========================================== Track: Конунг Хмель Quality: CDDA 100%=========================================== Track: Мой дед говорил... Quality: CDDA 100%=========================================== Track: Пивоварня Ульва (Бонус) Quality: CDDA 100%=========================================== Track: Пивоварня Ульва Quality: CDDA 100%=========================================== Track: Сильматроллион Quality: CDDA 100%=========================================== Track: Скальд Quality: CDDA 100%=========================================== Track: Сырный штурм Quality: CDDA 100%=========================================== Track: Фольклорная-застольная (труЪ) Quality: CDDA 100%=========================================== Track: Фольклорная-застольная Quality: CDDA 100%=========================================== Track: Вальс на костях Quality: CDDA 100%=========================================== Track: Враг мой Quality: CDDA 100%=========================================== Track: Ингрид Quality: CDDA 100%=========================================== Track: Колыбельная из-под бревна Quality: CDDA 100%=========================================== Track: Не за что винить... Quality: CDDA 100%=========================================== Track: Недоконунг Quality: CDDA 100%=========================================== Track: Пивная келья Quality: CDDA 100%=========================================== Track: Порнополька Quality: CDDA 100%=========================================== Track: Райнхайтсгебот 1516 Quality: CDDA 100%=========================================== Track: Братья во Хмелю Quality: CDDA 100%=========================================== Track: Жопотряс Quality: CDDA 100%=========================================== Track: Октоберфест Quality: CDDA 100%=========================================== Track: Кружечка Тёмного Эля Quality: CDDA 100%=========================================== Track: Поймай лосося! Quality: CDDA 100%=========================================== Track: Хмъёльнир Quality: CDDA 100%=========================================== Track: Beer Mantra Quality: CDDA 100%=========================================== Track: Ave Celia! Quality: CDDA 100%=========================================== Track: Камаринская Quality: CDDA 100%=========================================== Track: Восстание Троллей Quality: CDDA 99%===========================================
  
fooCDtect - foobar2000 + auCDtect, baralgin.

auCDtect: CD records authenticity detector, version 0.8.2Copyright (c) 2004 Oleg Berngardt. All rights reserved.Copyright (c) 2004 Alexander Djourik. All rights reserved.

mode: 0

=========================================== Track: Братья во Хмелю Quality: CDDA 100%=========================================== Track: Хмъёльнир Quality: CDDA 100%=========================================== Track: Beer Mantra Quality: CDDA 100%=========================================== Track: Жопотряс Quality: CDDA 100%=========================================== Track: Октоберфест Quality: CDDA 100%=========================================== Track: Камаринская Quality: CDDA 100%=========================================== Track: Ave Celia! Quality: CDDA 100%=========================================== Track: Поймай лосося! Quality: CDDA 100%=========================================== Track: Кружечка Тёмного Эля Quality: CDDA 100%=========================================== Track: Восстание Троллей Quality: CDDA 99%=========================================== Track: Хумппа по Соседству (feat. Jonne Järvelä from Korpiklaani) Quality: CDDA 100%===========================================
  
Exact Audio Copy V0.99 prebeta 4 from 23. January 2008

EAC extraction logfile from 26. October 2008, 14:21

Тролль Гнет Ель / Тролль Гнет Ель

Used drive : ASUS DRW-1814BLT Adapter: 1 ID: 1

Read mode : SecureUtilize accurate stream : YesDefeat audio cache : YesMake use of C2 pointers : No

Read offset correction : 6Overread into Lead-In and Lead-Out : NoFill up missing offset samples with silence : YesDelete leading and trailing silent blocks : NoNull samples used in CRC calculations : YesUsed interface : Installed external ASPI interface

Used output format : Internal WAV RoutinesSample format : 44.100 Hz; 16 Bit; Stereo

TOC of the extracted CD

Track | Start | Length | Start sector | End sector --------------------------------------------------------- 1 | 0:00.00 | 3:49.01 | 0 | 17175 2 | 3:49.01 | 2:51.48 | 17176 | 30048 3 | 6:40.49 | 3:42.44 | 30049 | 46742 4 | 10:23.18 | 3:29.30 | 46743 | 62447 5 | 13:52.48 | 2:57.07 | 62448 | 75729 6 | 16:49.55 | 3:03.58 | 75730 | 89512 7 | 19:53.38 | 3:14.73 | 89513 | 104135 8 | 23:08.36 | 3:05.71 | 104136 | 118081 9 | 26:14.32 | 2:49.58 | 118082 | 130814 10 | 29:04.15 | 3:56.56 | 130815 | 148570 11 | 33:00.71 | 3:02.00 | 148571 | 162220

Range status and errors

Selected range

Filename E:\music\rusrock\Тролль Гнет Ель\2003 - Тролль Гнет Ель (2008, Мистерия; Jet Noise, JN-098-2)\Тролль Гнет Ель - Тролль Гнет Ель.wav

Peak level 98.8 % Range quality 100.0 % Test CRC 80D786FF Copy CRC 80D786FF Copy OK

No errors occurred

End of status report
  
Exact Audio Copy V0.99 prebeta 4 from 23. January 2008

Отчёт EAC об извлечении, выполненном 27. июня 2008, 19:02

Тролль Гнёт Ель / Праздник Похмеляйнен

Дисковод: ASUS DRW-1814BLT Adapter: 1 ID: 0

Режим чтения : ДостоверностьИспользование точного потока : ДаОтключение кэша аудио : ДаИспользование указателей C2 : Нет

Коррекция смещения при чтении : 6Способность читать области Lead-in и Lead-out : НетЗаполнение пропущенных сэмплов тишиной : ДаУдаление блоков с тишиной в начале и конце : НетПри вычислениях CRC использовались нулевые сэмплы : ДаИнтерфейс : Встроенный Win32-интерфейс для Win NT/2000

Выходной формат : Внутренние WAV-операцииФормат сэмплов : 44.100 Гц; 16 бит; стерео

TOC извлечённого CD

Трек | Старт | Длительность | Начальный сектор | Конечный сектор --------------------------------------------------------------------- 1 | 0:00.00 | 3:39.35 | 0 | 16459 2 | 3:39.35 | 3:45.01 | 16460 | 33335 3 | 7:24.36 | 2:52.47 | 33336 | 46282 4 | 10:17.08 | 3:14.04 | 46283 | 60836 5 | 13:31.12 | 3:01.13 | 60837 | 74424 6 | 16:32.25 | 3:04.73 | 74425 | 88297 7 | 19:37.23 | 3:13.53 | 88298 | 102825 8 | 22:51.01 | 3:15.32 | 102826 | 117482 9 | 26:06.33 | 4:25.41 | 117483 | 137398 10 | 30:31.74 | 3:07.26 | 137399 | 151449 11 | 33:39.25 | 2:58.20 | 151450 | 164819 12 | 36:37.45 | 2:57.06 | 164820 | 178100 13 | 39:34.51 | 3:00.11 | 178101 | 191611 14 | 42:34.62 | 3:43.03 | 191612 | 208339 15 | 48:49.65 | 3:47.32 | 219740 | 236796

Характеристики диапазона извлечения и сообщения об ошибках

Выбранный диапазон

Имя файла E:\music\rusrock\(Folk Rock) Тролль Гнет Ель\Тролль Гнёт Ель - Праздник Похмеляйнен.wav

Пиковый уровень 96.5 % Качество диапазона 100.0 % CRC теста E463273C CRC копии E463273C Копирование... OK

Ошибок не произошло

AccurateRip: сводка

Трек 1 точное извлечение (доверие 3) [E2F19AE3]Трек 2 точное извлечение (доверие 3) [393688E1]Трек 3 точное извлечение (доверие 3) [EF58FB4B]Трек 4 точное извлечение (доверие 3) [0E4028CA]Трек 5 точное извлечение (доверие 3) [411522B0]Трек 6 точное извлечение (доверие 3) [7C685179]Трек 7 точное извлечение (доверие 3) [132A335D]Трек 8 точное извлечение (доверие 3) [B10A052B]Трек 9 точное извлечение (доверие 3) [A550B5B0]Трек 10 точное извлечение (доверие 3) [79AADA07]Трек 11 точное извлечение (доверие 3) [ADDEAE08]Трек 12 точное извлечение (доверие 3) [B2D1C9EE]Трек 13 точное извлечение (доверие 3) [4EED493B]Трек 14 точное извлечение (доверие 2) [574AFCF5]

Все треки извлечены точно

Конец отчёта
  
Exact Audio Copy V0.99 prebeta 4 from 23. January 2008

EAC extraction logfile from 26. October 2008, 14:02

Тролль Гнет Ель / конунг хмель

Used drive : ASUS DRW-1814BLT Adapter: 1 ID: 1

Read mode : SecureUtilize accurate stream : YesDefeat audio cache : YesMake use of C2 pointers : No

Read offset correction : 6Overread into Lead-In and Lead-Out : NoFill up missing offset samples with silence : YesDelete leading and trailing silent blocks : NoNull samples used in CRC calculations : YesUsed interface : Installed external ASPI interface

Used output format : Internal WAV RoutinesSample format : 44.100 Hz; 16 Bit; Stereo

TOC of the extracted CD

Track | Start | Length | Start sector | End sector --------------------------------------------------------- 1 | 0:00.00 | 4:07.26 | 0 | 18550 2 | 4:07.26 | 5:46.37 | 18551 | 44537 3 | 9:53.63 | 4:53.20 | 44538 | 66532 4 | 14:47.08 | 3:58.37 | 66533 | 84419 5 | 18:45.45 | 4:26.00 | 84420 | 104369 6 | 23:11.45 | 3:59.56 | 104370 | 122350 7 | 27:11.26 | 3:52.15 | 122351 | 139765 8 | 31:03.41 | 3:09.08 | 139766 | 153948 9 | 34:12.49 | 7:05.40 | 153949 | 185863 10 | 41:18.14 | 1:31.38 | 185864 | 192726 11 | 42:49.52 | 3:31.16 | 192727 | 208567 12 | 48:52.68 | 23:44.42 | 219968 | 326809

Range status and errors

Selected range

Filename E:\music\rusrock\Тролль Гнет Ель\2007 - Конунг Хмель (2008, Мистерия, Jet Noise, JN-099-2)\Тролль Гнет Ель - конунг хмель.wav

Peak level 99.4 % Range quality 100.0 % Test CRC CEA7F34F Copy CRC CEA7F34F Copy OK

No errors occurred

AccurateRip summary

Track 1 not present in databaseTrack 2 not present in databaseTrack 3 not present in databaseTrack 4 not present in databaseTrack 5 not present in databaseTrack 6 not present in databaseTrack 7 not present in databaseTrack 8 not present in databaseTrack 9 not present in databaseTrack 10 not present in databaseTrack 11 not present in database

None of the tracks are present in the AccurateRip database

End of status report
  
Этот журнал создан RubyRipper версии 0.5.4Сайт: http://code.google.com/p/rubyripper

CD-привод, используемый для извлечения:PIONEER DVD-RW DVR-215D 1.13Смещение привода: 48

Программа извлечения: cdparanoiaЧисло попыток для всех кусков: 2Число попыток для кусков с ошибками: 2Используемый кодек:-flac -> --best -V (flac 1.2.1)-vorbis -> -q 9 (oggenc from vorbis-tools 1.2.0)

ИНФОРМАЦИЯ С CDDB

Исполнитель = Тролль Гнет ЕльАльбом = 1516Год = 2009Жанр = Beer FolkТреки = 9

01 - Пивная Келья02 - Враг Мой03 - Порнополька04 - Колыбельная из-под бревна05 - Вальс на костях06 - Не за что винить...07 - Райнхайнтсгебот 151608 - Ингрид09 - Недоконунг

СТАТУС

Starting to rip track 1, trial #1Starting to rip track 1, trial #2Анализ файлов на несовпадающие кускиКаждый совпадающий кусок извлекался 2 раз(а) (:Хэш MD5: 8e6ee0938c9da8416c4d8c3466d4cf96

Starting to rip track 2, trial #1Starting to rip track 2, trial #2Анализ файлов на несовпадающие кускиКаждый совпадающий кусок извлекался 2 раз(а) (:Хэш MD5: 9bea0df60998cd87b834306390bc8d2f

Starting to rip track 3, trial #1Starting to rip track 3, trial #2Анализ файлов на несовпадающие кускиКаждый совпадающий кусок извлекался 2 раз(а) (:Хэш MD5: 8cecf103b05e28efa67f33021239afee

Starting to rip track 4, trial #1Starting to rip track 4, trial #2Анализ файлов на несовпадающие кускиКаждый совпадающий кусок извлекался 2 раз(а) (:Хэш MD5: f4bcb170da33a72706ec9a1a8f4c954c

Starting to rip track 5, trial #1Starting to rip track 5, trial #2Анализ файлов на несовпадающие кускиКаждый совпадающий кусок извлекался 2 раз(а) (:Хэш MD5: 66ff04e89ec8781b36a28ce4882e9f7e

Starting to rip track 6, trial #1Starting to rip track 6, trial #2Анализ файлов на несовпадающие кускиКаждый совпадающий кусок извлекался 2 раз(а) (:Хэш MD5: fed8a22cdc37ee478e396ad71645e957

Starting to rip track 7, trial #1Starting to rip track 7, trial #2Анализ файлов на несовпадающие кускиКаждый совпадающий кусок извлекался 2 раз(а) (:Хэш MD5: f1d1ca95ddf9f6c039f37be7dd7794ed

Starting to rip track 8, trial #1Starting to rip track 8, trial #2Анализ файлов на несовпадающие кускиКаждый совпадающий кусок извлекался 2 раз(а) (:Хэш MD5: cf0a19c49aba16fb2cebd21d2858838b

Starting to rip track 9, trial #1Starting to rip track 9, trial #2Анализ файлов на несовпадающие кускиКаждый совпадающий кусок извлекался 2 раз(а) (:Хэш MD5: 9fd0078263b4e743e493f198044d9a6b

СВОДКА

Все куски были извлечены по крайней мере 2 раз(а).Ошибок чтения не обнаружено.
  
Exact Audio Copy V0.99 prebeta 5 from 4. May 2009

EAC extraction logfile from 19. March 2011, 23:11

Тролль Гнёт Ель / Хмъёльнир

Used drive : HL-DT-STDVDRAM GH22NS50 Adapter: 1 ID: 0

Read mode : SecureUtilize accurate stream : YesDefeat audio cache : YesMake use of C2 pointers : No

Read offset correction : 667Overread into Lead-In and Lead-Out : NoFill up missing offset samples with silence : YesDelete leading and trailing silent blocks : NoNull samples used in CRC calculations : YesUsed interface : Native Win32 interface for Win NT & 2000Gap handling : Appended to previous track

Used output format : User Defined EncoderSelected bitrate : 768 kBit/sQuality : HighAdd ID3 tag : NoCommand line compressor : C:\Program Files (x86)\Exact Audio Copy\FLAC\FLAC.EXEAdditional command line options : -8 -V -T "ARTIST=%a" -T "TITLE=%t" -T "ALBUM=%g" -T "DATE=%y" -T "TRACKNUMBER=%n" -T "GENRE=%m" -T "COMMENT=EAC FLAC -8" %s

TOC of the extracted CD

Track | Start | Length | Start sector | End sector --------------------------------------------------------- 1 | 0:00.00 | 4:06.30 | 0 | 18479 2 | 4:06.30 | 4:40.73 | 18480 | 39552 3 | 8:47.28 | 4:28.17 | 39553 | 59669 4 | 13:15.45 | 3:34.46 | 59670 | 75765 5 | 16:50.16 | 3:39.05 | 75766 | 92195

Track 1

Filename E:\ъ\Тролль Гнёт Ель\Хмъёльнир\01. Хмъёльнир.wav

Pre-gap length 0:00:02.00

Peak level 100.0 % Track quality 99.9 % Test CRC 82BED3C9 Copy CRC 82BED3C9 Track not present in AccurateRip database Copy OK

Track 2

Filename E:\ъ\Тролль Гнёт Ель\Хмъёльнир\02. Beer Mantra.wav

Peak level 100.0 % Track quality 99.6 % Test CRC 9214024A Copy CRC 9214024A Track not present in AccurateRip database Copy OK

Track 3

Filename E:\ъ\Тролль Гнёт Ель\Хмъёльнир\03. Ave Celia!.wav

Peak level 100.0 % Track quality 100.0 % Test CRC 9C010723 Copy CRC 9C010723 Track not present in AccurateRip database Copy OK

Track 4

Filename E:\ъ\Тролль Гнёт Ель\Хмъёльнир\04. Камаринская.wav

Peak level 100.0 % Track quality 100.0 % Test CRC C37CFFD1 Copy CRC C37CFFD1 Track not present in AccurateRip database Copy OK

Track 5

Filename E:\ъ\Тролль Гнёт Ель\Хмъёльнир\05. Восстание троллей.wav

Peak level 100.0 % Track quality 100.0 % Test CRC A3513E31 Copy CRC A3513E31 Track not present in AccurateRip database Copy OK

None of the tracks are present in the AccurateRip database

No errors occurred

End of status report
  
Exact Audio Copy V0.99 prebeta 4 from 23. January 2008

Отчёт EAC об извлечении, выполненном 17. сентября 2011, 15:02

Тролль Гнет Ель / Братья Во Хмелю

Дисковод: TOSHIBA ODD-DVD SD-R1512 Adapter: 0 ID: 0

Режим чтения : ДостоверностьИспользование точного потока : ДаОтключение кэша аудио : ДаИспользование указателей C2 : Нет

Коррекция смещения при чтении : 116Способность читать области Lead-in и Lead-out : НетЗаполнение пропущенных сэмплов тишиной : ДаУдаление блоков с тишиной в начале и конце : НетПри вычислениях CRC использовались нулевые сэмплы : ДаИнтерфейс : Встроенный Win32-интерфейс для Win NT/2000

Выходной формат : Пользовательский кодировщикВыбранный битрейт : 1024 kBit/sКачество : ВысокийДобавление ID3-тэга : НетУтилита сжатия : C:\Program Files\Exact Audio Copy\FLAC\FLAC.EXEДополнительные параметры : -6 -V -T "ARTIST=%a" -T "TITLE=%t" -T "ALBUM=%g" -T "DATE=%y" -T "TRACKNUMBER=%n" -T "GENRE=%m" -T "COMMENT=%e" %s -o %d

TOC извлечённого CD

Трек | Старт | Длительность | Начальный сектор | Конечный сектор --------------------------------------------------------------------- 1 | 0:00.00 | 3:44.28 | 0 | 16827 2 | 3:44.28 | 4:05.66 | 16828 | 35268 3 | 7:50.19 | 4:42.04 | 35269 | 56422 4 | 12:32.23 | 4:34.46 | 56423 | 77018 5 | 17:06.69 | 5:23.17 | 77019 | 101260 6 | 22:30.11 | 3:46.19 | 101261 | 118229 7 | 26:16.30 | 4:29.01 | 118230 | 138405 8 | 30:45.31 | 2:08.13 | 138406 | 148018 9 | 32:53.44 | 3:57.41 | 148019 | 165834 10 | 36:51.10 | 3:44.01 | 165835 | 182635 11 | 40:35.11 | 5:18.05 | 182636 | 206490

Характеристики диапазона извлечения и сообщения об ошибках

Выбранный диапазон

Имя файла C:\12\Тролль Гнет Ель - Братья Во Хмелю.wav

Пиковый уровень 100.0 % Качество диапазона 99.9 % CRC копии 8ED78950 Копирование... OK

Ошибок не произошло

AccurateRip: сводка

Трек 1 нет в базе данныхТрек 2 нет в базе данныхТрек 3 нет в базе данныхТрек 4 нет в базе данныхТрек 5 нет в базе данныхТрек 6 нет в базе данныхТрек 7 нет в базе данныхТрек 8 нет в базе данныхТрек 9 нет в базе данныхТрек 10 нет в базе данныхТрек 11 нет в базе данных

Ни одного трека нет в базе AccurateRip

Конец отчёта


Трекер:  [ 07-Май-2012 07:47 ]

  

Скачать .torrent

Размер .torrent файла 27 KB


Размер: 1.81 GB
Хэш (hash) релиза: b7f1f5b3e8d0359cd8eb7abcf991416e80f08518

Еще никто не оставлял запись к записи скачать торрент Тролль Гнёт Ель - Дискография . Будь первым!

!Обратная связь