Скачать через торрент Oingo Boingo - Good for Your Soul бесплатно русская версия torrent активатор

Если у вас наблюдаются проблемы со скриншотами, переходом по ссылками, скачиванием торрентов - проблемы в блокировщике рекламы AdBlock. #хорошегоДня!


Статистика раздачи
Размер:  281 MB   |    Зарегистрирован:  5 лет 5 месяцев   |    .torrent скачан:  27 раз   |   
Раздают:  1  
   
Загрузка...
 
Автор Сообщение

Galfimbul

avatar Galfimbul


Oingo Boingo - Good for Your Soul

Год: 1983
Страна: USA (Los Angeles, CA)
Страна-производитель диска: USA
Жанр: New Wave / Rock / Ska
Label & Catalog #: A&M Records, CD-3252
Наличие сканов в содержимом раздачи: нет
Продолжительность: 41:36
Тексты: есть
Кодек: ALAC
Release Type: Album
Программа-риповщик : CueTools + Refalac
Битрейт: lossless
Треклист:
01. (3:34) Who Do You Want to Be
02. (3:16) Good for Your Soul
03. (3:42) No Spill Blood
04. (2:21) Cry of the Vatos
05. (3:42) Fill the Void
06. (4:50) Sweat
07. (3:44) Nothing Bad Ever Happens
08. (4:43) Wake Up (It's 1984)
09. (4:04) Dead or Alive
10. (4:04) Pictures of You
11. (3:42) Little Guns
  
EAC extraction logfile from 19. August 2007, 8:07 for CDOingo Boingo / Good for Your Soul

Used drive : HL-DT-STRW/DVD GCC-4243N Adapter: 1 ID: 0Read mode : Secure with NO C2, accurate stream, disable cacheRead offset correction : 102Overread into Lead-In and Lead-Out : No

Used output format : C:\Program Files\Exact Audio Copy\flac.exe (User Defined Encoder) 320 kBit/s Additional command line options : -8 -A tukey(0.25) -A gauss(0.1875) -b 4096 -V -T "artist=%a" -T "title=%t" -T "album=%g" -T "date=%y" -T "tracknumber=%n" -T "genre=%m" %s --sector-align

Other options : Fill up missing offset samples with silence : Yes Delete leading and trailing silent blocks : No Native Win32 interface for Win NT & 2000

Track 1 Filename C:\EAC\Oingo Boingo - Good for Your Soul\01 - Who Do You Want to Be.wav

Pre-gap length 0:00:02.00

Peak level 92.8 % Track quality 100.0 % Test CRC D2EA4594 Copy CRC D2EA4594 Copy OK

Track 2 Filename C:\EAC\Oingo Boingo - Good for Your Soul\02 - Good for Your Soul.wav

Pre-gap length 0:00:01.47

Peak level 100.0 % Track quality 100.0 % Test CRC BB162EC7 Copy CRC BB162EC7 Copy OK

Track 3 Filename C:\EAC\Oingo Boingo - Good for Your Soul\03 - No Spill Blood.wav

Pre-gap length 0:00:01.38

Peak level 100.0 % Track quality 100.0 % Test CRC 276C8BC1 Copy CRC 276C8BC1 Copy OK

Track 4 Filename C:\EAC\Oingo Boingo - Good for Your Soul\04 - Cry of the Vatos.wav

Pre-gap length 0:00:00.45

Peak level 85.1 % Track quality 100.0 % Test CRC 1AB8C1F7 Copy CRC 1AB8C1F7 Copy OK

Track 5 Filename C:\EAC\Oingo Boingo - Good for Your Soul\05 - Fill the Void.wav

Peak level 100.0 % Track quality 99.9 % Test CRC DD534405 Copy CRC DD534405 Copy OK

Track 6 Filename C:\EAC\Oingo Boingo - Good for Your Soul\06 - Sweat.wav

Peak level 89.8 % Track quality 100.0 % Test CRC C5986049 Copy CRC C5986049 Copy OK

Track 7 Filename C:\EAC\Oingo Boingo - Good for Your Soul\07 - Nothing Bad Ever Happens.wav

Pre-gap length 0:00:02.05

Peak level 97.2 % Track quality 100.0 % Test CRC 8A993F85 Copy CRC 8A993F85 Copy OK

Track 8 Filename C:\EAC\Oingo Boingo - Good for Your Soul\08 - Wake Up (It's 1984).wav

Pre-gap length 0:00:01.73

Peak level 92.5 % Track quality 99.9 % Test CRC 08DCA295 Copy CRC 08DCA295 Copy OK

Track 9 Filename C:\EAC\Oingo Boingo - Good for Your Soul\09 - Dead or Alive.wav

Pre-gap length 0:00:00.10

Peak level 100.0 % Track quality 100.0 % Test CRC F41B42D6 Copy CRC F41B42D6 Copy OK

Track 10 Filename C:\EAC\Oingo Boingo - Good for Your Soul\10 - Pictures of You.wav

Peak level 100.0 % Track quality 100.0 % Test CRC 2FFC2B09 Copy CRC 2FFC2B09 Copy OK

Track 11 Filename C:\EAC\Oingo Boingo - Good for Your Soul\11 - Little Guns.wav

Pre-gap length 0:00:00.47

Peak level 80.8 % Track quality 100.0 % Test CRC A7D5E40C Copy CRC A7D5E40C Copy OK

No errors occured

End of status report
  
AUDIOCHECKER v2.0 beta (build 457) - by Dester - <a href="mailto:opdester@freemail.hu" class="postLink">opdester@freemail.hu</a>~~~~~~~~~~~~~~~~~~~~~~~~~~~~~~~~~~-=== DO NOT EDIT THIS FILE! ===-

Path: ...\Oingo Boingo - 1983 - Good For Your Soul

001 -=- 01 - Who Do You Want to Be.flac -=- CDDA (100%)002 -=- 02 - Good for Your Soul.flac -=- CDDA (100%)003 -=- 03 - No Spill Blood.flac -=- CDDA (100%)004 -=- 04 - Cry of the Vatos.flac -=- CDDA (58%)005 -=- 05 - Fill the Void.flac -=- CDDA (100%)006 -=- 06 - Sweat.flac -=- CDDA (99%)007 -=- 07 - Nothing Bad Ever Happens.flac -=- CDDA (100%)008 -=- 08 - Wake Up (It's 1984).flac -=- CDDA (100%)009 -=- 09 - Dead or Alive.flac -=- CDDA (100%)010 -=- 10 - Pictures of You.flac -=- CDDA (100%)011 -=- 11 - Little Guns.flac -=- CDDA (100%)

Summary 96.09% CDDA

253039124


Трекер:  [ 07-Май-2012 07:48 ]

  

Скачать .torrent

Размер .torrent файла 12 KB


Размер: 281 MB
Хэш (hash) релиза: a592a54ce3b1c7f21c427a384b62fdb6d9545c72

Еще никто не оставлял запись к записи скачать торрент Oingo Boingo - Good for Your Soul . Будь первым!

!Обратная связь