Скачать через торрент Oingo Boingo - Only a Lad бесплатно русская версия torrent активатор

Если у вас наблюдаются проблемы со скриншотами, переходом по ссылками, скачиванием торрентов - проблемы в блокировщике рекламы AdBlock. #хорошегоДня!


Статистика раздачи
Размер:  273 MB   |    Зарегистрирован:  5 лет 5 месяцев   |    .torrent скачан:  26 раз   |   
Раздают:  1  
   
Загрузка...
 
Автор Сообщение

Galfimbul

avatar Galfimbul


Oingo Boingo - Only a Lad

Год: 1981
Страна: USA (Los Angeles, CA)
Страна-производитель диска: USA
Жанр: New Wave / Rock / Ska
Label & Catalog #: A&M Records, CD-3250
Наличие сканов в содержимом раздачи: да
Продолжительность: 38:02
Тексты: есть
Кодек: ALAC
Release Type: Album
Программа-риповщик : CueTools + Refalac
Битрейт: lossless
Треклист:
01. (3:44) Little Girls
02. (3:46) Perfect System
03. (3:51) On the Outside
04. (3:41) Capitalism
05. (4:37) You Really Got Me
06. (3:57) Only a Lad
07. (3:55) What You See
08. (3:26) Controller
09. (3:00) Imposter
10. (4:08) Nasty Habits
  
Exact Audio Copy V0.99 prebeta 5 from 4. May 2009

EAC extraction logfile from 27. January 2010, 9:49

Oingo Boingo / Only a Lad

Used drive : TSSTcorpDVD+-RW TS-H653G Adapter: 0 ID: 1

Read mode : SecureUtilize accurate stream : YesDefeat audio cache : YesMake use of C2 pointers : No

Read offset correction : 6Overread into Lead-In and Lead-Out : NoFill up missing offset samples with silence : YesDelete leading and trailing silent blocks : NoNull samples used in CRC calculations : YesUsed interface : Native Win32 interface for Win NT & 2000Gap handling : Appended to previous track

Used output format : User Defined EncoderSelected bitrate : 768 kBit/sQuality : HighAdd ID3 tag : NoCommand line compressor : C:\Program Files\Exact Audio Copy\FLAC\FLAC.EXEAdditional command line options : -6 -V -T "ARTIST=%a" -T "TITLE=%t" -T "ALBUM=%g" -T "DATE=%y" -T "TRACKNUMBER=%n" -T "GENRE=%m" -T "COMMENT=%e" %s -o %d

TOC of the extracted CD

Track | Start | Length | Start sector | End sector --------------------------------------------------------- 1 | 0:00.32 | 3:43.40 | 32 | 16796 2 | 3:43.72 | 3:46.00 | 16797 | 33746 3 | 7:29.72 | 3:51.33 | 33747 | 51104 4 | 11:21.30 | 3:40.50 | 51105 | 67654 5 | 15:02.05 | 4:37.20 | 67655 | 88449 6 | 19:39.25 | 3:57.30 | 88450 | 106254 7 | 23:36.55 | 3:55.00 | 106255 | 123879 8 | 27:31.55 | 3:26.00 | 123880 | 139329 9 | 30:57.55 | 3:00.00 | 139330 | 152829 10 | 33:57.55 | 4:07.67 | 152830 | 171421

Track 1

Filename C:\Documents and Settings\John\Desktop\01 - Little Girls.wav

Pre-gap length 0:00:02.42

Peak level 100.0 % Track quality 100.0 % Test CRC 217C519A Copy CRC 217C519A Accurately ripped (confidence 10) [22EAD660] Copy OK

Track 2

Filename C:\Documents and Settings\John\Desktop\02 - Perfect System.wav

Peak level 100.0 % Track quality 100.0 % Test CRC C64EF863 Copy CRC C64EF863 Accurately ripped (confidence 10) [9BDE04E2] Copy OK

Track 3

Filename C:\Documents and Settings\John\Desktop\03 - On the Outside.wav

Pre-gap length 0:00:00.20

Peak level 100.0 % Track quality 99.9 % Test CRC AEB5AA57 Copy CRC AEB5AA57 Accurately ripped (confidence 10) [C888CBAD] Copy OK

Track 4

Filename C:\Documents and Settings\John\Desktop\04 - Capitalism.wav

Pre-gap length 0:00:00.40

Peak level 100.0 % Track quality 100.0 % Test CRC AA9DCB95 Copy CRC AA9DCB95 Accurately ripped (confidence 10) [A9536B7C] Copy OK

Track 5

Filename C:\Documents and Settings\John\Desktop\05 - You Really Got Me.wav

Pre-gap length 0:00:00.64

Peak level 95.7 % Track quality 99.9 % Test CRC 6FA7D2A4 Copy CRC 6FA7D2A4 Accurately ripped (confidence 10) [C5D9390B] Copy OK

Track 6

Filename C:\Documents and Settings\John\Desktop\06 - Only a Lad.wav

Pre-gap length 0:00:00.44

Peak level 100.0 % Track quality 100.0 % Test CRC 88DD09D1 Copy CRC 88DD09D1 Accurately ripped (confidence 10) [F490C90F] Copy OK

Track 7

Filename C:\Documents and Settings\John\Desktop\07 - What You See.wav

Peak level 100.0 % Track quality 100.0 % Test CRC 1A2B7A11 Copy CRC 1A2B7A11 Accurately ripped (confidence 10) [0066DF2D] Copy OK

Track 8

Filename C:\Documents and Settings\John\Desktop\08 - Controller.wav

Pre-gap length 0:00:00.10

Peak level 100.0 % Track quality 100.0 % Test CRC BD925051 Copy CRC BD925051 Accurately ripped (confidence 10) [AC416EFC] Copy OK

Track 9

Filename C:\Documents and Settings\John\Desktop\09 - Imposter.wav

Peak level 100.0 % Track quality 99.9 % Test CRC 75FB103C Copy CRC 75FB103C Accurately ripped (confidence 10) [9C27E1B9] Copy OK

Track 10

Filename C:\Documents and Settings\John\Desktop\10 - Nasty Habits.wav

Pre-gap length 0:00:00.24

Peak level 100.0 % Track quality 100.0 % Test CRC 55BDA846 Copy CRC 55BDA846 Accurately ripped (confidence 10) [9C4B44D5] Copy OK

All tracks accurately ripped

No errors occurred

End of status report
  
AUDIOCHECKER v2.0 beta (build 457) - by Dester - <a href="mailto:opdester@freemail.hu" class="postLink">opdester@freemail.hu</a>~~~~~~~~~~~~~~~~~~~~~~~~~~~~~~~~~~-=== DO NOT EDIT THIS FILE! ===-

Path: ...\Oingo Boingo - 1981 - Only A Lad

001 -=- 01 - Little Girls.flac -=- CDDA (100%)002 -=- 02 - Perfect System.flac -=- CDDA (100%)003 -=- 03 - On the Outside.flac -=- CDDA (100%)004 -=- 04 - Capitalism.flac -=- CDDA (100%)005 -=- 05 - You Really Got Me.flac -=- CDDA (100%)006 -=- 06 - Only a Lad.flac -=- CDDA (100%)007 -=- 07 - What You See.flac -=- CDDA (100%)008 -=- 08 - Controller.flac -=- CDDA (100%)009 -=- 09 - Imposter.flac -=- CDDA (100%)010 -=- 10 - Nasty Habits.flac -=- CDDA (99%)

Summary 99.90% CDDA

248093220


Трекер:  [ 07-Май-2012 07:48 ]

  

Скачать .torrent

Размер .torrent файла 12 KB


Размер: 273 MB
Хэш (hash) релиза: 5299e3111a1063008a5b7bd5862afdf6bf02ca3e

Еще никто не оставлял запись к записи скачать торрент Oingo Boingo - Only a Lad . Будь первым!

!Обратная связь