Скачать через торрент Oingo Boingo - Dead Mans Party бесплатно русская версия torrent активатор

Если у вас наблюдаются проблемы со скриншотами, переходом по ссылками, скачиванием торрентов - проблемы в блокировщике рекламы AdBlock. #хорошегоДня!


Статистика раздачи
Размер:  363 MB   |    Зарегистрирован:  5 лет 5 месяцев   |    .torrent скачан:  25 раз   |   
Раздают:  1  
   
Загрузка...
 
Автор Сообщение

Galfimbul

avatar Galfimbul


Oingo Boingo - Dead Man's Party

Год: 1985
Страна: USA (Los Angeles, CA)
Страна-производитель диска: USA
Жанр: New Wave / Rock
Label & Catalog #: MCA Records, MCAD-5665
Наличие сканов в содержимом раздачи: да
Продолжительность: 41:56
Тексты: есть
Кодек: ALAC
Release Type: Album
Программа-риповщик : CueTools + Refalac
Битрейт: lossless
Треклист:
01. (5:13) Just Another Day
02. (6:21) Dead Man's Party
03. (4:41) Heard Somebody Cry
04. (4:14) No One Lives Forever
05. (3:37) Stay
06. (4:35) Fool's Paradise
07. (3:46) Help Me
08. (3:24) Same Man I Was Before
09. (6:08) Weird Science
  
EAC extraction logfile from 22. August 2006, 8:18 for CDOingo Boingo / Dead Man's Party

Used drive : _NEC DVD_RW ND-2510A Adapter: 1 ID: 0Read mode : Secure with NO C2, accurate stream, disable cacheRead offset correction : 48Overread into Lead-In and Lead-Out : No

Used output format : Internal WAV Routines 44.100 Hz; 16 Bit; Stereo

Other options : Fill up missing offset samples with silence : Yes Delete leading and trailing silent blocks : No Native Win32 interface for Win NT & 2000

Track 1 Filename C:\Documents and Settings\work4\Desktop\Oingo Boingo\Dead Man's Party\01 - Just Another Day.wav

Pre-gap length 0:00:02.49

Peak level 89.6 % Track quality 100.0 % Test CRC F522C4EB Copy CRC F522C4EB Copy OK

Track 2 Filename C:\Documents and Settings\work4\Desktop\Oingo Boingo\Dead Man's Party\02 - Dead Man's Party.wav

Peak level 80.9 % Track quality 100.0 % Test CRC 994688AC Copy CRC 994688AC Copy OK

Track 3 Filename C:\Documents and Settings\work4\Desktop\Oingo Boingo\Dead Man's Party\03 - Heard Somebody Cry.wav

Pre-gap length 0:00:00.10

Peak level 91.1 % Track quality 100.0 % Test CRC C6C27272 Copy CRC C6C27272 Copy OK

Track 4 Filename C:\Documents and Settings\work4\Desktop\Oingo Boingo\Dead Man's Party\04 - No One Lives Forever.wav

Pre-gap length 0:00:00.01

Peak level 82.6 % Track quality 100.0 % Test CRC 556F774A Copy CRC 556F774A Copy OK

Track 5 Filename C:\Documents and Settings\work4\Desktop\Oingo Boingo\Dead Man's Party\05 - Stay.wav

Pre-gap length 0:00:02.50

Peak level 91.0 % Track quality 100.0 % Test CRC 3D337CA8 Copy CRC 3D337CA8 Copy OK

Track 6 Filename C:\Documents and Settings\work4\Desktop\Oingo Boingo\Dead Man's Party\06 - Fool's Paradise.wav

Pre-gap length 0:00:01.30

Peak level 67.7 % Track quality 100.0 % Test CRC 6BC49C13 Copy CRC 6BC49C13 Copy OK

Track 7 Filename C:\Documents and Settings\work4\Desktop\Oingo Boingo\Dead Man's Party\07 - Help Me.wav

Pre-gap length 0:00:00.10

Peak level 89.8 % Track quality 99.9 % Test CRC E8BDA0BA Copy CRC E8BDA0BA Copy OK

Track 8 Filename C:\Documents and Settings\work4\Desktop\Oingo Boingo\Dead Man's Party\08 - Same Man I was Before.wav

Pre-gap length 0:00:00.64

Peak level 74.1 % Track quality 100.0 % Test CRC 6DFA1BF9 Copy CRC 6DFA1BF9 Copy OK

Track 9 Filename C:\Documents and Settings\work4\Desktop\Oingo Boingo\Dead Man's Party\09 - Wierd Science.wav

Peak level 80.5 % Track quality 99.9 % Test CRC 2BBFE633 Copy CRC 2BBFE633 Copy OK

No errors occured

End of status report
  
AUDIOCHECKER v2.0 beta (build 457) - by Dester - <a href="mailto:opdester@freemail.hu" class="postLink">opdester@freemail.hu</a>~~~~~~~~~~~~~~~~~~~~~~~~~~~~~~~~~~-=== DO NOT EDIT THIS FILE! ===-

Path: ...\Oingo Boingo - 1985 - Dead Man's Party

001 -=- 01 - Just Another Day.flac -=- CDDA (100%)002 -=- 02 - Dead Man's Party.flac -=- CDDA (100%)003 -=- 03 - Heard Somebody Cry.flac -=- CDDA (100%)004 -=- 04 - No One Lives Forever.flac -=- CDDA (100%)005 -=- 05 - Stay.flac -=- CDDA (100%)006 -=- 06 - Fool's Paradise.flac -=- MPEG (73%)007 -=- 07 - Help Me.flac -=- CDDA (100%)008 -=- 08 - Same Man I was Before.flac -=- CDDA (100%)009 -=- 09 - Weird Science.flac -=- MPEG (95%)

Summary 81.33% CDDA

152987124


Трекер:  [ 07-Май-2012 07:48 ]

  

Скачать .torrent

Размер .torrent файла 16 KB


Размер: 363 MB
Хэш (hash) релиза: 9b4372993e1bd4a915fe64673e6e901fe4def299

Еще никто не оставлял запись к записи скачать торрент Oingo Boingo - Dead Mans Party . Будь первым!

!Обратная связь