Скачать через торрент Yann Tiersen - Amelie from Montmartre - 2001 бесплатно русская версия torrent активатор

Если у вас наблюдаются проблемы со скриншотами, переходом по ссылками, скачиванием торрентов - проблемы в блокировщике рекламы AdBlock. #хорошегоДня!


Статистика раздачи
Размер:  361 MB   |    Зарегистрирован:  5 лет 5 месяцев   |    .torrent скачан:  42 раза   |   
Раздают:  1  
   
Загрузка...
 
Автор Сообщение

Galfimbul

avatar Galfimbul


Yann Tiersen - Amelie from Montmartre

Год: 2001
Страна: Франция
Страна-производитель диска: Япония
Жанр: Soundtrack
Тип издания: оригинал
Издатель (лейбл): EMI Music (Japan)
Номер по каталогу: VJCP-68352
Наличие сканов в содержимом раздачи: нет
Продолжительность: 00:54:23
Тексты: не требуются
Кодек: ALAC
Программа-риповщик : foobar2000 + iTunes (lossless)
Битрейт: lossless
Треклист:
01. J'y suis jamais alle
02. Les jours tristes (instrumental)
03. La Valse d'Amelie
04. Comptine d'un autre ete - L'apres midi
05. La noyee
06. L'autre valse d'Amelie
07. Guilty
08. A quai
09. Le moulin
10. Pas si simple
11. La valse d'Amelie (orchestra version)
12. La valse des vieux os
13. La dispute
14. Si tu n`etais pas la (Frehel)
15. Soir de fete
16. La redecouverte
17. Sur le fil
18. Le banquet
19. La valse d'Amelie (piano version)
20. La valse des monstres
  
Exact Audio Copy V0.99 prebeta 5 from 4. May 2009

Отчёт EAC об извлечении, выполненном 22. апреля 2011, 19:37

Yann Tiersen / Amelie from Monmartre (VJCP 68352)

Дисковод: ASUS DRW-24B1ST Adapter: 3 ID: 0

Режим чтения : ДостоверностьИспользование точного потока : ДаОтключение кэша аудио : ДаИспользование указателей C2 : Нет

Коррекция смещения при чтении : 6Способность читать области Lead-in и Lead-out : НетЗаполнение пропущенных сэмплов тишиной : ДаУдаление блоков с тишиной в начале и конце : НетПри вычислениях CRC использовались нулевые сэмплы : ДаИнтерфейс : Встроенный Win32-интерфейс для Win NT/2000

Выходной формат : Внутренние WAV-операцииФормат сэмплов : 44.100 Гц; 16 бит; стерео

TOC извлечённого CD

Трек | Старт | Длительность | Начальный сектор | Конечный сектор --------------------------------------------------------------------- 1 | 0:00.00 | 1:34.47 | 0 | 7096 2 | 1:34.47 | 3:03.35 | 7097 | 20856 3 | 4:38.07 | 2:15.70 | 20857 | 31051 4 | 6:54.02 | 2:20.55 | 31052 | 41606 5 | 9:14.57 | 2:02.70 | 41607 | 50826 6 | 11:17.52 | 1:33.35 | 50827 | 57836 7 | 12:51.12 | 3:12.70 | 57837 | 72306 8 | 16:04.07 | 3:32.25 | 72307 | 88231 9 | 19:36.32 | 4:27.55 | 88232 | 108311 10 | 24:04.12 | 1:52.40 | 108312 | 116751 11 | 25:56.52 | 2:00.25 | 116752 | 125776 12 | 27:57.02 | 2:20.18 | 125777 | 136294 13 | 30:17.20 | 4:15.15 | 136295 | 155434 14 | 34:32.35 | 3:29.05 | 155435 | 171114 15 | 38:01.40 | 2:55.62 | 171115 | 184301 16 | 40:57.27 | 1:13.13 | 184302 | 189789 17 | 42:10.40 | 4:23.50 | 189790 | 209564 18 | 46:34.15 | 1:31.02 | 209565 | 216391 19 | 48:05.17 | 2:38.50 | 216392 | 228291 20 | 50:43.67 | 3:39.08 | 228292 | 244724

Характеристики диапазона извлечения и сообщения об ошибках

Выбранный диапазон

Имя файла D:\Music\!MyCDRips(wav)\OST\Amelie from Monmartre (VJCP 68352) - 2001\Yann Tiersen - Amelie from Monmartre (VJCP 68352).wav

Пиковый уровень 100.0 % Качество диапазона 100.0 % CRC теста 7BE45FB9 CRC копии 7BE45FB9 Копирование... OK

Ошибок не произошло

AccurateRip: сводка

Трек 1 точность не определена (достоверность 3) [7563CCD4], AccurateRip вернул [8C2EC61A]Трек 2 точность не определена (достоверность 3) [DC70728F], AccurateRip вернул [4B104E53]Трек 3 точность не определена (достоверность 3) [AFB8F025], AccurateRip вернул [6853D2E1]Трек 4 точность не определена (достоверность 3) [30695E7F], AccurateRip вернул [1002A891]Трек 5 точность не определена (достоверность 3) [E8F2332F], AccurateRip вернул [0A765901]Трек 6 точность не определена (достоверность 3) [FEA97090], AccurateRip вернул [2B32CFA6]Трек 7 точность не определена (достоверность 3) [F6C291D8], AccurateRip вернул [9CD885B4]Трек 8 точность не определена (достоверность 3) [2DE4B6BD], AccurateRip вернул [7CF763D1]Трек 9 точность не определена (достоверность 3) [5FC8E98A], AccurateRip вернул [4FBCFC26]Трек 10 точность не определена (достоверность 3) [945BCC90], AccurateRip вернул [4CD8D71C]Трек 11 точность не определена (достоверность 3) [9D14C7C4], AccurateRip вернул [69331B42]Трек 12 точность не определена (достоверность 3) [C9E03DAD], AccurateRip вернул [A4475E3B]Трек 13 точность не определена (достоверность 3) [EB8BCE3E], AccurateRip вернул [DB01C860]Трек 14 точность не определена (достоверность 3) [91752104], AccurateRip вернул [2EB9EE32]Трек 15 точность не определена (достоверность 3) [A991F053], AccurateRip вернул [8CED3A53]Трек 16 точность не определена (достоверность 3) [1B29C165], AccurateRip вернул [902288DF]Трек 17 точность не определена (достоверность 3) [ECFF6132], AccurateRip вернул [1923C65C]Трек 18 точность не определена (достоверность 3) [03BBB704], AccurateRip вернул [4EE2E28C]Трек 19 точность не определена (достоверность 3) [4E046BAC], AccurateRip вернул [694C71EA]Трек 20 точность не определена (достоверность 3) [FEE75618], AccurateRip вернул [E5F21FB5]

Ни один трек не прошёл проверки на точностьВ вашей базе может быть иной вариант штамповки диска

Конец отчёта
  
AUDIOCHECKER v2.0 beta (build 457) - by Dester - <a href="mailto:opdester@freemail.hu" class="postLink">opdester@freemail.hu</a>~~~~~~~~~~~~~~~~~~~~~~~~~~~~~~~~~~-=== DO NOT EDIT THIS FILE! ===-

Path: ...\(VJCP 68352) Yann Tiersen - Amelie from Monmartre

1 -=- Yann Tiersen - Amelie from Monmartre (VJCP 68352).flac -=- CDDA (100%)

221791764


Трекер:  [ 07-Май-2012 07:48 ]

  

Скачать .torrent

Размер .torrent файла 15 KB


Размер: 361 MB
Хэш (hash) релиза: 16241cdfbac4554e071823681b72f3d0f65b6462

Еще никто не оставлял запись к записи скачать торрент Yann Tiersen - Amelie from Montmartre - 2001 . Будь первым!

!Обратная связь