Скачать через торрент Judas Priest - A Touch Of Evil - 2009 бесплатно русская версия torrent активатор

Если у вас наблюдаются проблемы со скриншотами, переходом по ссылками, скачиванием торрентов - проблемы в блокировщике рекламы AdBlock. #хорошегоДня!


Статистика раздачи
Размер:  518 MB   |    Зарегистрирован:  5 лет 5 месяцев   |    .torrent скачан:  28 раз   |   
Раздают:  1  
   
Загрузка...
 
Автор Сообщение

Galfimbul

avatar Galfimbul


Judas Priest - A Touch Of Evil (live pieces from World Tours 2005 & 2008)

Год: 2009
Страна: Англия
Страна-производитель диска: Россия
Жанр: Heavy Metal
Тип издания: оригинал
Издатель (лейбл): Sony Music
Номер по каталогу: 88697552672
Наличие сканов в содержимом раздачи: нет
Продолжительность: 68:24
Тексты: вшиты
Кодек: ALAC
Программа-риповщик : foobar2000 + iTunes (lossless)
Битрейт: lossless
Источник: собственный диск
Треклист:
01. Judas Rising
02. Hellrider
03. Between The Hammer & The Anvil
04. Riding On The Wind
05. Death
06. Beyond The Realms Of Death
07. Dissident Aggressor
08. A Touch Of Evil
09. Eat Me Alive
10. Prophecy
11. Painkiller
12. Worth Fighting For (Bonus Track)
13. Angel (Bonus Track, for russian release only)
  
Exact Audio Copy V0.99 prebeta 5 from 4. May 2009

Отчёт EAC об извлечении, выполненном 23. апреля 2012, 13:47

Judas Priest / A Touch Of Evil

Дисковод: TSSTcorpDVD+-RW TS-H653F Adapter: 3 ID: 0

Режим чтения : ДостоверностьИспользование точного потока : ДаОтключение кэша аудио : ДаИспользование указателей C2 : Нет

Коррекция смещения при чтении : 6Способность читать области Lead-in и Lead-out : НетЗаполнение пропущенных сэмплов тишиной : ДаУдаление блоков с тишиной в начале и конце : НетПри вычислениях CRC использовались нулевые сэмплы : ДаИнтерфейс : Встроенный Win32-интерфейс для Win NT/2000

Выходной формат : Внутренние WAV-операцииФормат сэмплов : 44.100 Гц; 16 бит; стерео

TOC извлечённого CD

Трек | Старт | Длительность | Начальный сектор | Конечный сектор --------------------------------------------------------------------- 1 | 0:00.00 | 4:23.07 | 0 | 19731 2 | 4:23.07 | 5:37.56 | 19732 | 45062 3 | 10:00.63 | 4:34.65 | 45063 | 65677 4 | 14:35.53 | 3:28.34 | 65678 | 81311 5 | 18:04.12 | 7:52.18 | 81312 | 116729 6 | 25:56.30 | 6:51.65 | 116730 | 147619 7 | 32:48.20 | 3:03.34 | 147620 | 161378 8 | 35:51.54 | 6:10.30 | 161379 | 189158 9 | 42:02.09 | 4:35.21 | 189159 | 209804 10 | 46:37.30 | 6:07.01 | 209805 | 237330 11 | 52:44.31 | 7:03.24 | 237331 | 269079 12 | 59:47.55 | 4:26.20 | 269080 | 289049 13 | 64:14.00 | 4:10.34 | 289050 | 307833

Характеристики диапазона извлечения и сообщения об ошибках

Выбранный диапазон

Имя файла C:\Users\Michael\Desktop\Judas Priest - A Touch Of Evil.wav

Пиковый уровень 97.7 % Качество диапазона 100.0 % CRC теста 118A6D60 CRC копии 118A6D60 Копирование... OK

Ошибок не произошло

AccurateRip: сводка

Трек 1 точное извлечение (доверие 2) [7D40A537]Трек 2 точное извлечение (доверие 2) [ECAA9FC5]Трек 3 точное извлечение (доверие 2) [1A430888]Трек 4 точное извлечение (доверие 2) [801B8896]Трек 5 точное извлечение (доверие 2) [AC34B2C4]Трек 6 точное извлечение (доверие 2) [86C38714]Трек 7 точное извлечение (доверие 2) [A40D9E58]Трек 8 точное извлечение (доверие 2) [AEA35CE6]Трек 9 точное извлечение (доверие 2) [16366517]Трек 10 точное извлечение (доверие 2) [46A73A15]Трек 11 точное извлечение (доверие 2) [FB5A0611]Трек 12 точное извлечение (доверие 2) [12994920]Трек 13 точное извлечение (доверие 2) [871C89D4]

Все треки извлечены точно

Конец отчёта
  
AUDIOCHECKER v2.0 beta (build 457) - by Dester - <a href="mailto:opdester@freemail.hu" class="postLink">opdester@freemail.hu</a>~~~~~~~~~~~~~~~~~~~~~~~~~~~~~~~~~~-=== DO NOT EDIT THIS FILE! ===-

Path: G:\

1 -=- Judas Priest - A Touch Of Evil.wav -=- CDDA (100%)

250256196


Трекер:  [ 06-Май-2012 23:18 ]

  

Скачать .torrent

Размер .torrent файла 11 KB


Размер: 518 MB
Хэш (hash) релиза: e3f490bb29bcbb701fd599f216898f575f501ad5

Еще никто не оставлял запись к записи скачать торрент Judas Priest - A Touch Of Evil - 2009 . Будь первым!

!Обратная связь