Скачать через торрент VA - Бах. Гении классической музыки - 2012 бесплатно русская версия torrent активатор

Если у вас наблюдаются проблемы со скриншотами, переходом по ссылками, скачиванием торрентов - проблемы в блокировщике рекламы AdBlock. #хорошегоДня!


Статистика раздачи
Размер:  526 MB   |    Зарегистрирован:  5 лет 5 месяцев   |    .torrent скачан:  84 раза   |   
Раздают:  1  
   
Загрузка...
 
Автор Сообщение

Galfimbul

avatar Galfimbul


VA - Бах. Гении классической музыки

Год: 2012
Страна: Германия
Страна-производитель диска: Беларусь
Жанр: Classical
Тип издания: сборник
Издатель (лейбл): ВИГМА
Номер по каталогу: 3101
Наличие сканов в содержимом раздачи: да
Продолжительность: 01:19:07
Тексты: не требуются
Кодек: ALAC
Программа-риповщик : foobar2000 + iTunes (lossless)
Битрейт: lossless
Источник: Собственный СD
Треклист:
01. Toccata and Fugue in D minor, BWV 565 Toccata
02. Suite No.2 in B minor, BWV 1067 Badinerie
03. Suite No.3 in D major, BWV 1068 Air
04. Suite No.4 in D major, BWV 1069 Rejouissance
05. Brandenburg Concerto No.1 in F major, BWV 1046 Adagio
06. Brandenburg Concerto No.2 in F major, BWV 1047 Allegro Assai
07. Brandenburg Concerto No.3 in G major, BWV 1048 Allegro
08. Concerto in C minor for Violin and Oboe, BWV 1060 Adagio
09. Double Concerto in D minor, BWV 1043 Largo ma non Tanto
10. Piano Concerto No.5 in F minor, BWV 1056 Largo
11. Violin Concerto in A minor, BWV 1041 Allegro Assai
12. Violin Concerto No.2 in E major, BWV 1042 Adagio
13. Sonata No.3 in C major for Solo Violin, BWV 1005 Largo
14. Wachet auf, Cantata, BWV 140 No.1
15. Nun komm, der Heiden Heiland, BWV 659
16. Christmas Oratorio, BWV 248 Sinfonia
17. Goldberg Variations, BWV 988 Aria
18. Jesu Joy of Man's Desiring, BWV 147
  
Exact Audio Copy V0.99 prebeta 5 from 4. May 2009

Отчёт EAC об извлечении, выполненном 21. апреля 2012, 11:14

И.С. Бах / Бах. Гении классической музыки

Дисковод: _NEC DVD_RW ND-3550A Adapter: 0 ID: 0

Режим чтения : ДостоверностьИспользование точного потока : ДаОтключение кэша аудио : ДаИспользование указателей C2 : Нет

Коррекция смещения при чтении : 48Способность читать области Lead-in и Lead-out : НетЗаполнение пропущенных сэмплов тишиной : ДаУдаление блоков с тишиной в начале и конце : НетПри вычислениях CRC использовались нулевые сэмплы : ДаИнтерфейс : Установленный внешний ASPI-интерфейс

Выходной формат : Внутренние WAV-операцииФормат сэмплов : 44.100 Гц; 16 бит; стерео

TOC извлечённого CD

Трек | Старт | Длительность | Начальный сектор | Конечный сектор --------------------------------------------------------------------- 1 | 0:00.00 | 2:59.30 | 0 | 13454 2 | 2:59.30 | 1:27.34 | 13455 | 20013 3 | 4:26.64 | 5:24.12 | 20014 | 44325 4 | 9:51.01 | 2:32.42 | 44326 | 55767 5 | 12:23.43 | 5:20.36 | 55768 | 79803 6 | 17:44.04 | 3:24.72 | 79804 | 95175 7 | 21:09.01 | 3:30.39 | 95176 | 110964 8 | 24:39.40 | 6:36.24 | 110965 | 140688 9 | 31:15.64 | 6:52.01 | 140689 | 171589 10 | 38:07.65 | 2:52.07 | 171590 | 184496 11 | 40:59.72 | 3:52.09 | 184497 | 201905 12 | 44:52.06 | 7:30.22 | 201906 | 235677 13 | 52:22.28 | 3:26.30 | 235678 | 251157 14 | 55:48.58 | 5:52.19 | 251158 | 277576 15 | 61:41.02 | 4:45.61 | 277577 | 299012 16 | 66:26.63 | 6:00.66 | 299013 | 326078 17 | 72:27.54 | 3:20.60 | 326079 | 341138 18 | 75:48.39 | 3:19.34 | 341139 | 356097

Характеристики диапазона извлечения и сообщения об ошибках

Выбранный диапазон

Имя файла F:\Music lossless\И.С. Бах - Бах. Гении классической музыки.wav

Пиковый уровень 88.1 % Качество диапазона 99.9 % CRC теста 6498E9A1 CRC копии 6498E9A1 Копирование... OK

Ошибок не произошло

AccurateRip: сводка

Трек 1 нет в базе данныхТрек 2 нет в базе данныхТрек 3 нет в базе данныхТрек 4 нет в базе данныхТрек 5 нет в базе данныхТрек 6 нет в базе данныхТрек 7 нет в базе данныхТрек 8 нет в базе данныхТрек 9 нет в базе данныхТрек 10 нет в базе данныхТрек 11 нет в базе данныхТрек 12 нет в базе данныхТрек 13 нет в базе данныхТрек 14 нет в базе данныхТрек 15 нет в базе данныхТрек 16 нет в базе данныхТрек 17 нет в базе данныхТрек 18 нет в базе данных

Ни одного трека нет в базе AccurateRip

Конец отчёта
  
Started at: суббота, 21. 04. 2012. - 11:28.331 file found

1 -===- F:\Music lossless\Бах. Гении классической музыки\И.С. Бах - Бах. Гении классической музыки.flac Extracted successfully Conclusion: this track is CDDA with probability 100% Tempfile successfully deleted.

Finished at: суббота, 21. 04. 2012. - 11:34.35 (operation time: 0:06.01)


Трекер:  [ 06-Май-2012 23:18 ]

  

Скачать .torrent

Размер .torrent файла 12 KB


Размер: 526 MB
Хэш (hash) релиза: ca2edecb0c0b2c21002e6470288225fd529ad799

Еще никто не оставлял запись к записи скачать торрент VA - Бах. Гении классической музыки - 2012 . Будь первым!

!Обратная связь