Скачать через торрент Franz SchuberШуберт - Die Schöne Müllerin бесплатно русская версия torrent активатор

Если у вас наблюдаются проблемы со скриншотами, переходом по ссылками, скачиванием торрентов - проблемы в блокировщике рекламы AdBlock. #хорошегоДня!


Статистика раздачи
Размер:  231 MB   |    Зарегистрирован:  5 лет 5 месяцев   |    .torrent скачан:  31 раз   |   
Раздают:  1  
   
Загрузка...
 
Автор Сообщение

Galfimbul

avatar Galfimbul


Franz Schubert - Die Schöne Müllerin

Жанр: Classical
Страна-производитель диска: Japan
Год издания диска: 1986
Издатель (лейбл): Denon
Номер по каталогу: 33CO-1072
Дата записи: 1986
Аудиокодек: ALAC
Рипнуто: foobar2000+iTunes
Битрейт аудио: lossless
Продолжительность: 58:53
Тексты: вшиты
Наличие сканов в содержимом раздачи: нет

Треклист:
01 Das Wandern 2:37
02 Wohin? 2:12
03 Halt! 1:39
04 Danksagung Au Den Bach 2:02
05 Am Feierabend 2:25
06 Der Neugierige 4:18
07 Ungeduld 2:33
08 Morgengruß 4:18
09 Des Müllers Blumen 3:34
10 Tränenregen 4:24
11 Mein! 2:33
12 Pause 3:33
13 Mit Dem Grünen Lautenbande 1:58
14 Der Jäger 1:14
15 Eifersucht Und Stolz 1:37
16 Die Liebe Farbe 3:39
17 Die Böse Farbe 2:07
18 Trockne Blumen 3:30
19 Der Müller Und Der Bach 3:46
20 Des Baches Wiegenlied 4:50
Исполнители: Piano - Philippe Bianconi, Vocals - Hermann Prey
Слова: Wilhelm Müller
Прекрасная мельничиха (op.25, D795) (нем. Die schöne Müllerin) — первый вокальный цикл Франца Шуберта на слова Вильгельма Мюллера (1823). На русском языке известен в переводе И. Тюменева и А. Машистова.
Сюжет:
Рассказывается о юном мельнике, который отправляется в странствия искать счастье. Он видит мельницу и влюбляется в дочь местного мельника. Любовь приносит ему радостные, а затем и горестные переживания: у него появляется более счастливый соперник, охотник. Вновь отправившись в странствия, юноша рассказывает ручью как единственному верному другу о своей потерянной любви и после этого решает покончить жизнь самоубийством.
  
Exact Audio Copy V1.0 beta 2 from 29. April 2011

EAC extraction logfile from 24. January 2012, 20:11

Schubert / Die Schöne Müllerin

Used drive : HL-DT-STDVDRAM GSA-H12L Adapter: 0 ID: 0

Read mode : SecureUtilize accurate stream : YesDefeat audio cache : YesMake use of C2 pointers : No

Read offset correction : 667Overread into Lead-In and Lead-Out : NoFill up missing offset samples with silence : YesDelete leading and trailing silent blocks : NoNull samples used in CRC calculations : YesUsed interface : Native Win32 interface for Win NT & 2000

Used output format : User Defined EncoderSelected bitrate : 896 kBit/sQuality : HighAdd ID3 tag : NoCommand line compressor : C:\Program Files\FLAC\flac.exeAdditional command line options : -5 -T "Artist=%artist%" -T "Title=%title%" -T "Album=%albumtitle%" -T "Date=%year%" -T "Tracknumber=%tracknr%" -T "Genre=%genre%" %source% -o %dest%

TOC of the extracted CD

Track | Start | Length | Start sector | End sector --------------------------------------------------------- 1 | 0:00.00 | 2:36.63 | 0 | 11762 2 | 2:36.63 | 2:12.00 | 11763 | 21662 3 | 4:48.63 | 1:39.00 | 21663 | 29087 4 | 6:27.63 | 2:02.25 | 29088 | 38262 5 | 8:30.13 | 2:26.00 | 38263 | 49212 6 | 10:56.13 | 4:18.52 | 49213 | 68614 7 | 15:14.65 | 2:34.13 | 68615 | 80177 8 | 17:49.03 | 4:18.22 | 80178 | 99549 9 | 22:07.25 | 3:33.43 | 99550 | 115567 10 | 25:40.68 | 4:23.70 | 115568 | 135362 11 | 30:04.63 | 2:33.40 | 135363 | 146877 12 | 32:38.28 | 3:33.20 | 146878 | 162872 13 | 36:11.48 | 1:57.62 | 162873 | 171709 14 | 38:09.35 | 1:13.63 | 171710 | 177247 15 | 39:23.23 | 1:36.72 | 177248 | 184519 16 | 41:00.20 | 3:38.55 | 184520 | 200924 17 | 44:39.00 | 2:07.25 | 200925 | 210474 18 | 46:46.25 | 3:29.53 | 210475 | 226202 19 | 50:16.03 | 3:46.25 | 226203 | 243177 20 | 54:02.28 | 4:50.22 | 243178 | 264949

Range status and errors

Selected range

Filename I:\=== VINYL RIPS ===\=== EAC===\X FRESH RIP\Schubert - Die Schöne Müllerin.wav

Peak level 97.1 % Extraction speed 7.7 X Range quality 100.0 % Test CRC B27B48C3 Copy CRC B27B48C3 Copy OK

No errors occurred

AccurateRip summary

Track 1 accurately ripped (confidence 1) [C6588561] (AR v1)Track 2 accurately ripped (confidence 1) [CFABC06F] (AR v1)Track 3 accurately ripped (confidence 1) [4EE1BD8B] (AR v1)Track 4 accurately ripped (confidence 1) [5CD78BD7] (AR v1)Track 5 accurately ripped (confidence 1) [02DCE476] (AR v1)Track 6 accurately ripped (confidence 1) [0E881516] (AR v1)Track 7 accurately ripped (confidence 1) [35FBEA1D] (AR v1)Track 8 accurately ripped (confidence 1) [F2BC8995] (AR v1)Track 9 accurately ripped (confidence 1) [FE5E3E6B] (AR v1)Track 10 accurately ripped (confidence 1) [508B9160] (AR v1)Track 11 accurately ripped (confidence 1) [21CF6D14] (AR v1)Track 12 accurately ripped (confidence 1) [3D7A548E] (AR v1)Track 13 accurately ripped (confidence 1) [FBA7BC0E] (AR v1)Track 14 accurately ripped (confidence 1) [3E22F4F3] (AR v1)Track 15 accurately ripped (confidence 1) [CECAAAA3] (AR v1)Track 16 accurately ripped (confidence 1) [D28F4523] (AR v1)Track 17 accurately ripped (confidence 1) [7DC4B255] (AR v1)Track 18 accurately ripped (confidence 1) [03ABD64B] (AR v1)Track 19 accurately ripped (confidence 1) [2C4D4611] (AR v1)Track 20 accurately ripped (confidence 1) [18136C65] (AR v1)

All tracks accurately ripped

End of status report

==== Log checksum FADE9DE76B6B46D47D75FA03AB091FD48619C005139CCF6C4DC8F482903424FA ====
  
AUDIOCHECKER v2.0 beta (build 457) - by Dester - <a href="mailto:opdester@freemail.hu" class="postLink">opdester@freemail.hu</a>~~~~~~~~~~~~~~~~~~~~~~~~~~~~~~~~~~-=== DO NOT EDIT THIS FILE! ===-

Path: ...\Schubert Die Schoene Muellerin {Japan 1986}

1 -=- Schubert - Die Schoene Muellerin.wav -=- CDDA (99%)

131889332


Трекер:  [ 06-Май-2012 23:10 ]

  

Скачать .torrent

Размер .torrent файла 19 KB


Размер: 231 MB
Хэш (hash) релиза: 3dc7606b63a1bd5f91f13208ddc3d1c6fac6ffd1

Еще никто не оставлял запись к записи скачать торрент Franz SchuberШуберт - Die Schöne Müllerin . Будь первым!

!Обратная связь