Скачать через торрент MxPx - Plans Within Plans - 2012,ALAC, lossless бесплатно русская версия torrent активатор

Если у вас наблюдаются проблемы со скриншотами, переходом по ссылками, скачиванием торрентов - проблемы в блокировщике рекламы AdBlock. #хорошегоДня!


Статистика раздачи
Размер:  252 MB   |    Зарегистрирован:  5 лет 5 месяцев   |    .torrent скачан:  36 раз   |   
Раздают:  1  
   
Загрузка...
 
Автор Сообщение

Galfimbul

avatar Galfimbul


MxPx - Plans Within Plans

Год: 2012
Страна: USA
Жанр: Punk Rock/Pop Punk
Издатель (лейбл): Rock City Records
Наличие сканов в содержимом раздачи: нет
Продолжительность: 35:18
Тексты: вшиты
Кодек: ALAC
Программа-риповщик : foobar2000 + iTunes (lossless)
Битрейт: lossless
Треклист:
01 - Aces Up (02:28)
02 - Screw Loose (01:07)
03 - Nothing Left (02:50)
04 - The Times (02:55)
05 - In The Past (02:30)
06 - Best Of Times (03:28)
07 - Stay On Your Feet (03:11)
08 - Lucky Guy (02:47)
09 - Far Away (03:04)
10 - Cast Down My Heart (02:12)
11 - When It Comes To You (03:19)
12 - Inside Out (02:53)
13 - Nothing's Gonna Change (02:40)
  
X Lossless Decoder version 20120226 (139.1)

XLD extraction logfile from 2012-04-05 14:10:12 -0700

MxPx / Plans Within Plans

Used drive : HL-DT-ST DVDRW GS23N (revision SB00)

Ripper mode : XLD Secure RipperDisable audio cache : OK for the drive with a cache less than 1375KiBMake use of C2 pointers : NORead offset correction : 667Max retry count : 100Gap status : Analyzed, Appended (except HTOA)

TOC of the extracted CD Track | Start | Length | Start sector | End sector --------------------------------------------------------- 1 | 00:00:00 | 02:27:54 | 0 | 11078 2 | 02:27:54 | 01:07:30 | 11079 | 16133 3 | 03:35:09 | 02:50:28 | 16134 | 28911 4 | 06:25:37 | 02:55:04 | 28912 | 42040 5 | 09:20:41 | 02:29:49 | 42041 | 53264 6 | 11:50:15 | 03:27:63 | 53265 | 68852 7 | 15:18:03 | 03:11:18 | 68853 | 83195 8 | 18:29:21 | 02:46:38 | 83196 | 95683 9 | 21:15:59 | 03:04:15 | 95684 | 109498 10 | 24:19:74 | 02:11:70 | 109499 | 119393 11 | 26:31:69 | 03:19:24 | 119394 | 134342 12 | 29:51:18 | 02:52:71 | 134343 | 147313 13 | 32:44:14 | 02:40:12 | 147314 | 159325

AccurateRip Summary Disc not found in AccurateRip DB.

All Tracks Album gain : -10.40 dB Peak : 0.999878 Statistics Read error : 0 Jitter error (maybe fixed) : 0 Retry sector count : 0 Damaged sector count : 0

Track 01 Filename : /Users/Shared/XLD/01 - Aces Up.flac Pre-gap length : 00:02:00

Track gain : -10.07 dB Peak : 0.999878 CRC32 hash (test run) : 7E6A448E CRC32 hash : 7E6A448E CRC32 hash (skip zero) : C05E5D07 AccurateRip signature : E2CA3616 ->Track not present in AccurateRip database. Statistics Read error : 0 Jitter error (maybe fixed) : 0 Retry sector count : 0 Damaged sector count : 0

Track 02 Filename : /Users/Shared/XLD/02 - Screw Loose.flac Pre-gap length : 00:02:00

Track gain : -10.47 dB Peak : 0.999878 CRC32 hash (test run) : 73CF33C4 CRC32 hash : 73CF33C4 CRC32 hash (skip zero) : EDF25CF6 AccurateRip signature : C5CD8750 ->Track not present in AccurateRip database. Statistics Read error : 0 Jitter error (maybe fixed) : 0 Retry sector count : 0 Damaged sector count : 0

Track 03 Filename : /Users/Shared/XLD/03 - Nothing Left.flac Pre-gap length : 00:02:00

Track gain : -10.19 dB Peak : 0.999878 CRC32 hash (test run) : E0808FB8 CRC32 hash : E0808FB8 CRC32 hash (skip zero) : 4B4C6DC2 AccurateRip signature : 60EA60A7 ->Track not present in AccurateRip database. Statistics Read error : 0 Jitter error (maybe fixed) : 0 Retry sector count : 0 Damaged sector count : 0

Track 04 Filename : /Users/Shared/XLD/04 - The Times.flac Pre-gap length : 00:02:00

Track gain : -9.69 dB Peak : 0.999878 CRC32 hash (test run) : F2F4242B CRC32 hash : F2F4242B CRC32 hash (skip zero) : A6D5D4F5 AccurateRip signature : 575AAD2D ->Track not present in AccurateRip database. Statistics Read error : 0 Jitter error (maybe fixed) : 0 Retry sector count : 0 Damaged sector count : 0

Track 05 Filename : /Users/Shared/XLD/05 - In the Past.flac Pre-gap length : 00:02:00

Track gain : -10.27 dB Peak : 0.999878 CRC32 hash (test run) : 91BB770A CRC32 hash : 91BB770A CRC32 hash (skip zero) : CE4BC32F AccurateRip signature : C350F674 ->Track not present in AccurateRip database. Statistics Read error : 0 Jitter error (maybe fixed) : 0 Retry sector count : 0 Damaged sector count : 0

Track 06 Filename : /Users/Shared/XLD/06 - Best of Times (feat. The Swellers).flac Pre-gap length : 00:02:00

Track gain : -10.27 dB Peak : 0.999878 CRC32 hash (test run) : 5836DC71 CRC32 hash : 5836DC71 CRC32 hash (skip zero) : 55049DFA AccurateRip signature : A7B8727A ->Track not present in AccurateRip database. Statistics Read error : 0 Jitter error (maybe fixed) : 0 Retry sector count : 0 Damaged sector count : 0

Track 07 Filename : /Users/Shared/XLD/07 - Stay On Your Feet.flac Pre-gap length : 00:02:00

Track gain : -10.99 dB Peak : 0.999878 CRC32 hash (test run) : 3B076204 CRC32 hash : 3B076204 CRC32 hash (skip zero) : 37CFE14C AccurateRip signature : CCB10F43 ->Track not present in AccurateRip database. Statistics Read error : 0 Jitter error (maybe fixed) : 0 Retry sector count : 0 Damaged sector count : 0

Track 08 Filename : /Users/Shared/XLD/08 - Lucky Guy.flac Pre-gap length : 00:02:00

Track gain : -9.91 dB Peak : 0.999878 CRC32 hash (test run) : D80D2888 CRC32 hash : D80D2888 CRC32 hash (skip zero) : 1D1D8B96 AccurateRip signature : 283AFA40 ->Track not present in AccurateRip database. Statistics Read error : 0 Jitter error (maybe fixed) : 0 Retry sector count : 0 Damaged sector count : 0

Track 09 Filename : /Users/Shared/XLD/09 - Far Away.flac Pre-gap length : 00:02:00

Track gain : -10.54 dB Peak : 0.999878 CRC32 hash (test run) : E81C689C CRC32 hash : E81C689C CRC32 hash (skip zero) : 9233484B AccurateRip signature : 934A9F22 ->Track not present in AccurateRip database. Statistics Read error : 0 Jitter error (maybe fixed) : 0 Retry sector count : 0 Damaged sector count : 0

Track 10 Filename : /Users/Shared/XLD/10 - Cast Down My Heart.flac Pre-gap length : 00:02:00

Track gain : -10.60 dB Peak : 0.999878 CRC32 hash (test run) : 1429316B CRC32 hash : 1429316B CRC32 hash (skip zero) : 1EE910F0 AccurateRip signature : 3BD05C48 ->Track not present in AccurateRip database. Statistics Read error : 0 Jitter error (maybe fixed) : 0 Retry sector count : 0 Damaged sector count : 0

Track 11 Filename : /Users/Shared/XLD/11 - When It Comes to You.flac Pre-gap length : 00:02:00

Track gain : -10.48 dB Peak : 0.999878 CRC32 hash (test run) : 6C5C437A CRC32 hash : 6C5C437A CRC32 hash (skip zero) : 570E567A AccurateRip signature : 3C764761 ->Track not present in AccurateRip database. Statistics Read error : 0 Jitter error (maybe fixed) : 0 Retry sector count : 0 Damaged sector count : 0

Track 12 Filename : /Users/Shared/XLD/12 - Inside Out.flac Pre-gap length : 00:02:00

Track gain : -10.03 dB Peak : 0.999878 CRC32 hash (test run) : 3A75A562 CRC32 hash : 3A75A562 CRC32 hash (skip zero) : 7DD65454 AccurateRip signature : 66DFEFE2 ->Track not present in AccurateRip database. Statistics Read error : 0 Jitter error (maybe fixed) : 0 Retry sector count : 0 Damaged sector count : 0

Track 13 Filename : /Users/Shared/XLD/13 - Nothing's Gonna Change.flac Pre-gap length : 00:02:00

Track gain : -10.69 dB Peak : 0.999878 CRC32 hash (test run) : 9D662C97 CRC32 hash : 9D662C97 CRC32 hash (skip zero) : FBDF3D69 AccurateRip signature : 2765468D ->Track not present in AccurateRip database. Statistics Read error : 0 Jitter error (maybe fixed) : 0 Retry sector count : 0 Damaged sector count : 0

No errors occurred

End of status report


Трекер:  [ 06-Май-2012 23:10 ]

  

Скачать .torrent

Размер .torrent файла 20 KB


Размер: 252 MB
Хэш (hash) релиза: 568380bc0a4dd7e282e0e5179dd42ba22ccaac1a

Еще никто не оставлял запись к записи скачать торрент MxPx - Plans Within Plans - 2012,ALAC, lossless . Будь первым!

!Обратная связь