Скачать через торрент Sick Puppies - Дискография бесплатно русская версия torrent активатор

Если у вас наблюдаются проблемы со скриншотами, переходом по ссылками, скачиванием торрентов - проблемы в блокировщике рекламы AdBlock. #хорошегоДня!


Статистика раздачи
Размер:  1.3 GB   |    Зарегистрирован:  5 лет 5 месяцев   |    .torrent скачан:  42 раза   |   
Раздают:  1  
   
Загрузка...
 
Автор Сообщение

Galfimbul

avatar Galfimbul


Sick Puppies - Дискография

Год: 2001-2011
Страна: Australis
Страна-производитель диска: UK
Жанр: Alternative Rock/Nu Metal
Издатель (лейбл): Sony BGM/Virgin
Наличие сканов в содержимом раздачи: нет
Тексты: вшиты частично
Кодек: ALAC
Программа-риповщик : foobar2000 + iTunes (lossless)
Битрейт: lossless
Sick Puppies (sɪk 'pʌps; в пер. с англ. Хво́рые Псы) — австралийская альтернативная рок-группа, образованная в 1997 году. Группа состоит из вокалиста и гитариста Шаймона Мура, басистки Эммы Анзай и барабанщика Марка Гудвина.
Sick Puppies получили известность в 2006, когда их песня «All the Same» была загружена вместе с видео на YouTube. Видео, снятое при поддержке Бесплатных объятий было в Сиднее, и с тех пор видео получило 50,000 просмотров на веб сайте. Успех последовал за Cancer в 2007. Третий студийный альбом группы назван Tri-Polar.
Треклист
01 - Welcome To The Real World (02:44)
02 - Rock Kids (04:12)
03 - Duck Bite (03:45)
04 - Every Day (05:12)
05 - Time Will Pass (04:07)
06 - Nothing Really Matters (05:41)
07 - Open The Door (03:07)
08 - Holding Out (03:58)
09 - Something Different (03:49)
10 - Do You Know (03:25)
11 - Me Much Plenty (03:02)
12 - The Way (03:59)
13 - Rock Kids (Radio Edit) + Hidden Track (07:13)
Total Time: (54:07)
Exact Audio Copy V0.99 prebeta 4 from 23. January 2008

EAC extraction logfile from 25. October 2009, 23:59

Sick Puppies / Welcome To The Real World

Used drive : PLEXTOR DVDR PX-716A Adapter: 0 ID: 0

Read mode : Secure
Utilize accurate stream : Yes
Defeat audio cache : Yes
Make use of C2 pointers : No

Read offset correction : 30
Overread into Lead-In and Lead-Out : No
Fill up missing offset samples with silence : Yes
Delete leading and trailing silent blocks : No
Null samples used in CRC calculations : Yes
Used interface : Native Win32 interface for Win NT & 2000
Gap handling : Appended to previous track

Used output format : User Defined Encoder
Selected bitrate : 320 kBit/s
Quality : High
Add ID3 tag : No
Command line compressor : C:\Program Files\Exact Audio Copy\Flac\flac.exe
Additional command line options : -V -8 -T "artist=%a" -T "title=%t" -T "album=%g" -T "date=%y" -T "tracknumber=%n" -T "genre=%m" %s

TOC of the extracted CD

Track | Start | Length | Start sector | End sector
---------------------------------------------------------
1 | 0:00.00 | 2:44.10 | 0 | 12309
2 | 2:44.10 | 4:12.20 | 12310 | 31229
3 | 6:56.30 | 3:45.27 | 31230 | 48131
4 | 10:41.57 | 5:12.33 | 48132 | 71564
5 | 15:54.15 | 4:06.52 | 71565 | 90066
6 | 20:00.67 | 5:41.35 | 90067 | 115676
7 | 25:42.27 | 3:06.40 | 115677 | 129666
8 | 28:48.67 | 3:58.25 | 129667 | 147541
9 | 32:47.17 | 3:48.58 | 147542 | 164699
10 | 36:36.00 | 3:24.55 | 164700 | 180054
11 | 40:00.55 | 3:01.42 | 180055 | 193671
12 | 43:02.22 | 3:58.48 | 193672 | 211569
13 | 47:00.70 | 7:12.39 | 211570 | 244008
14 | 56:45.34 | 4:55.49 | 255409 | 277582

Track 1

Filename D:\Downloads\Bit Torrent\What.CD\EAC Rips\Sick Puppies - - Welcome To The Real World\01 - Welcome To The Real World.wav

Pre-gap length 0:00:02.00

Peak level 98.8 %
Track quality 100.0 %
Test CRC 4083DBC5
Copy CRC 4083DBC5
Track not present in AccurateRip database
Copy OK

Track 2

Filename D:\Downloads\Bit Torrent\What.CD\EAC Rips\Sick Puppies - - Welcome To The Real World\02 - Rock Kids.wav

Peak level 98.8 %
Track quality 100.0 %
Test CRC DFF845CD
Copy CRC DFF845CD
Track not present in AccurateRip database
Copy OK

Track 3

Filename D:\Downloads\Bit Torrent\What.CD\EAC Rips\Sick Puppies - - Welcome To The Real World\03 - Duck Bite.wav

Peak level 98.8 %
Track quality 100.0 %
Test CRC B23EEAF9
Copy CRC B23EEAF9
Track not present in AccurateRip database
Copy OK

Track 4

Filename D:\Downloads\Bit Torrent\What.CD\EAC Rips\Sick Puppies - - Welcome To The Real World\04 - Every Day.wav

Peak level 98.8 %
Track quality 100.0 %
Test CRC C9E60BE1
Copy CRC C9E60BE1
Track not present in AccurateRip database
Copy OK

Track 5

Filename D:\Downloads\Bit Torrent\What.CD\EAC Rips\Sick Puppies - - Welcome To The Real World\05 - Time Will Pass.wav

Peak level 98.8 %
Track quality 99.9 %
Test CRC 7444FFCD
Copy CRC 7444FFCD
Track not present in AccurateRip database
Copy OK

Track 6

Filename D:\Downloads\Bit Torrent\What.CD\EAC Rips\Sick Puppies - - Welcome To The Real World\06 - Nothing Really Matters.wav

Peak level 98.8 %
Track quality 100.0 %
Test CRC 285279A0
Copy CRC 285279A0
Track not present in AccurateRip database
Copy OK

Track 7

Filename D:\Downloads\Bit Torrent\What.CD\EAC Rips\Sick Puppies - - Welcome To The Real World\07 - Open The Door.wav

Peak level 99.2 %
Track quality 100.0 %
Test CRC 07CBD906
Copy CRC 07CBD906
Track not present in AccurateRip database
Copy OK

Track 8

Filename D:\Downloads\Bit Torrent\What.CD\EAC Rips\Sick Puppies - - Welcome To The Real World\08 - Holding Out.wav

Peak level 98.8 %
Track quality 100.0 %
Test CRC 7E5CC9C2
Copy CRC 7E5CC9C2
Track not present in AccurateRip database
Copy OK

Track 9

Filename D:\Downloads\Bit Torrent\What.CD\EAC Rips\Sick Puppies - - Welcome To The Real World\09 - Something Different.wav

Peak level 98.8 %
Track quality 99.9 %
Test CRC 23E19041
Copy CRC 23E19041
Track not present in AccurateRip database
Copy OK

Track 10

Filename D:\Downloads\Bit Torrent\What.CD\EAC Rips\Sick Puppies - - Welcome To The Real World\10 - Do You Know.wav

Peak level 98.8 %
Track quality 100.0 %
Test CRC DEDE655E
Copy CRC DEDE655E
Track not present in AccurateRip database
Copy OK

Track 11

Filename D:\Downloads\Bit Torrent\What.CD\EAC Rips\Sick Puppies - - Welcome To The Real World\11 - Me Much Plenty.wav

Peak level 98.8 %
Track quality 100.0 %
Test CRC 045D6EDE
Copy CRC 045D6EDE
Track not present in AccurateRip database
Copy OK

Track 12

Filename D:\Downloads\Bit Torrent\What.CD\EAC Rips\Sick Puppies - - Welcome To The Real World\12 - The Way.wav

Peak level 98.8 %
Track quality 100.0 %
Test CRC 8DD0C7A1
Copy CRC 8DD0C7A1
Track not present in AccurateRip database
Copy OK

Track 13

Filename D:\Downloads\Bit Torrent\What.CD\EAC Rips\Sick Puppies - - Welcome To The Real World\13 - Rock Kids (radio edit).wav

Peak level 99.9 %
Track quality 100.0 %
Test CRC 255B57EB
Copy CRC 255B57EB
Track not present in AccurateRip database
Copy OK

None of the tracks are present in the AccurateRip database

No errors occurred

End of status report
01 - My World (04:00)
02 - Pitiful (03:45)
03 - Cancer (03:06)
04 - What Are You Looking For (04:09)
05 - Deliverance (03:12)
06 - All The Same (04:19)
07 - Too Many Words (03:21)
08 - Howard's Tale (04:12)
09 - Asshole Father (03:01)
10 - Issues (04:00)
11 - Anywhere But Here (03:59)
12 - The Bottom (04:36)
Total Time: (45:34)
Exact Audio Copy V0.99 prebeta 4 from 23. January 2008

EAC extraction logfile from 21. April 2009, 0:10

Sick Puppies / Dressed Up As Life

Used drive : HL-DT-STBD-RE GGW-H20L Adapter: 0 ID: 1

Read mode : Secure
Utilize accurate stream : Yes
Defeat audio cache : Yes
Make use of C2 pointers : No

Read offset correction : 667
Overread into Lead-In and Lead-Out : No
Fill up missing offset samples with silence : Yes
Delete leading and trailing silent blocks : No
Null samples used in CRC calculations : Yes
Used interface : Native Win32 interface for Win NT & 2000
Gap handling : Appended to previous track

Used output format : User Defined Encoder
Selected bitrate : 128 kBit/s
Quality : High
Add ID3 tag : No
Command line compressor : C:\Program Files\Exact Audio Copy\Flac\flac.exe
Additional command line options : -V -8 -T "artist=%a" -T "title=%t" -T "album=%g" -T "date=%y" -T "tracknumber=%n" -T "genre=%m" %s

TOC of the extracted CD

Track | Start | Length | Start sector | End sector
---------------------------------------------------------
1 | 0:00.00 | 3:59.54 | 0 | 17978
2 | 3:59.54 | 3:44.55 | 17979 | 34833
3 | 7:44.34 | 3:05.49 | 34834 | 48757
4 | 10:50.08 | 4:09.02 | 48758 | 67434
5 | 14:59.10 | 3:12.29 | 67435 | 81863
6 | 18:11.39 | 4:18.44 | 81864 | 101257
7 | 22:30.08 | 3:21.17 | 101258 | 116349
8 | 25:51.25 | 4:12.08 | 116350 | 135257
9 | 30:03.33 | 3:00.40 | 135258 | 148797
10 | 33:03.73 | 3:59.43 | 148798 | 166765
11 | 37:03.41 | 3:59.33 | 166766 | 184723
12 | 41:02.74 | 4:36.23 | 184724 | 205446

Track 1

Filename K:\Downloads\What.CD\Sick Puppies - 2007 - Dressed Up As Life [FLAC]\01 - My World.wav

Pre-gap length 0:00:02.00

Peak level 100.0 %
Track quality 99.9 %
Test CRC A66A9CA6
Copy CRC A66A9CA6
Accurately ripped (confidence 10) [E7F57002]
Copy OK

Track 2

Filename K:\Downloads\What.CD\Sick Puppies - 2007 - Dressed Up As Life [FLAC]\02 - Pitiful.wav

Peak level 100.0 %
Track quality 100.0 %
Test CRC 8C1BA967
Copy CRC 8C1BA967
Accurately ripped (confidence 10) [530E8A4F]
Copy OK

Track 3

Filename K:\Downloads\What.CD\Sick Puppies - 2007 - Dressed Up As Life [FLAC]\03 - Cancer.wav

Peak level 100.0 %
Track quality 100.0 %
Test CRC 437C7730
Copy CRC 437C7730
Accurately ripped (confidence 9) [1BE4A321]
Copy OK

Track 4

Filename K:\Downloads\What.CD\Sick Puppies - 2007 - Dressed Up As Life [FLAC]\04 - What Are You Looking For.wav

Peak level 100.0 %
Track quality 99.9 %
Test CRC 364683AD
Copy CRC 364683AD
Accurately ripped (confidence 8) [AC07D7C0]
Copy OK

Track 5

Filename K:\Downloads\What.CD\Sick Puppies - 2007 - Dressed Up As Life [FLAC]\05 - Deliverance.wav

Peak level 100.0 %
Track quality 100.0 %
Test CRC AF64C071
Copy CRC AF64C071
Accurately ripped (confidence 8) [4CA980C0]
Copy OK

Track 6

Filename K:\Downloads\What.CD\Sick Puppies - 2007 - Dressed Up As Life [FLAC]\06 - All The Same.wav

Peak level 100.0 %
Track quality 100.0 %
Test CRC 1A243C95
Copy CRC 1A243C95
Accurately ripped (confidence 10) [64E4C1A5]
Copy OK

Track 7

Filename K:\Downloads\What.CD\Sick Puppies - 2007 - Dressed Up As Life [FLAC]\07 - Too Many Words.wav

Peak level 100.0 %
Track quality 99.9 %
Test CRC A2C6BF28
Copy CRC A2C6BF28
Accurately ripped (confidence 10) [445BDFAF]
Copy OK

Track 8

Filename K:\Downloads\What.CD\Sick Puppies - 2007 - Dressed Up As Life [FLAC]\08 - Howard's Tale.wav

Peak level 100.0 %
Track quality 100.0 %
Test CRC 77291E28
Copy CRC 77291E28
Accurately ripped (confidence 9) [A2D8EE53]
Copy OK

Track 9

Filename K:\Downloads\What.CD\Sick Puppies - 2007 - Dressed Up As Life [FLAC]\09 - Asshole Father.wav

Peak level 100.0 %
Track quality 100.0 %
Test CRC D1156BF1
Copy CRC D1156BF1
Accurately ripped (confidence 10) [55205BFA]
Copy OK

Track 10

Filename K:\Downloads\What.CD\Sick Puppies - 2007 - Dressed Up As Life [FLAC]\10 - Issues.wav

Peak level 100.0 %
Track quality 100.0 %
Test CRC 9792DFB1
Copy CRC 9792DFB1
Accurately ripped (confidence 10) [618E2B2E]
Copy OK

Track 11

Filename K:\Downloads\What.CD\Sick Puppies - 2007 - Dressed Up As Life [FLAC]\11 - Aynwhere But Here.wav

Peak level 100.0 %
Track quality 100.0 %
Test CRC 32C3F826
Copy CRC 32C3F826
Accurately ripped (confidence 9) [B1F7B517]
Copy OK

Track 12

Filename K:\Downloads\What.CD\Sick Puppies - 2007 - Dressed Up As Life [FLAC]\12 - The Bottom.wav

Peak level 100.0 %
Track quality 99.9 %
Test CRC 4455F0E2
Copy CRC 4455F0E2
Accurately ripped (confidence 9) [A6223ABD]
Copy OK

All tracks accurately ripped

No errors occurred

End of status report
01 - War (03:13)
02 - I Hate You (03:28)
03 - Riptide (03:00)
04 - You're Going Down (03:07)
05 - Odd One (03:47)
06 - So What I Lied (03:43)
07 - Survive (03:13)
08 - Should've Known Better (03:52)
09 - Maybe (03:25)
10 - Don't Walk Away (03:47)
11 - Master Of The Universe (03:33)
12 - In It For Life (04:06)
13 - White Baloons (03:40)
Bonus Tracks
14 - Dead Space (03:07)
15 - The Pretender (03:10)
16 - Til Something Breaks (02:47)
17 - Monsters (04:08)
Total Time: (59:01)
01 - You're Going Down (Unplugged) (04:10)
02 - Riptide (Unplugged) (03:22)
03 - Maybe (Unplugged) (03:30)
04 - Odd One (Unplugged) (03:45)
05 - Don't Walk Away (Unplugged) (03:42)
06 - All The Same (Unplugged) (04:16)
07 - White Baloons (Unplugged) (03:24)
Total Time: (26:07)
X Lossless Decoder version 20110228 (129.0)

XLD extraction logfile from 2011-06-04 20:02:37 -0700

Sick Puppies / Tri - Polar Deluxe (Disc 1)

Used drive : MATSHITA DVD-R UJ-867 (revision HA13)

Ripper mode : CDParanoia III 10.2
Disable audio cache : OK for the drive with a cache less than 2750KiB
Make use of C2 pointers : NO
Read offset correction : 102
Max retry count : 100
Gap status : Analyzed, Appended

TOC of the extracted CD
Track | Start | Length | Start sector | End sector
---------------------------------------------------------
1 | 00:00:00 | 03:13:24 | 0 | 14498
2 | 03:13:24 | 03:28:30 | 14499 | 30128
3 | 06:41:54 | 02:59:43 | 30129 | 43596
4 | 09:41:22 | 03:07:26 | 43597 | 57647
5 | 12:48:48 | 03:47:03 | 57648 | 74675
6 | 16:35:51 | 03:42:64 | 74676 | 91389
7 | 20:18:40 | 03:12:49 | 91390 | 105838
8 | 23:31:14 | 03:52:17 | 105839 | 123255
9 | 27:23:31 | 03:25:24 | 123256 | 138654
10 | 30:48:55 | 03:47:28 | 138655 | 155707
11 | 34:36:08 | 03:33:15 | 155708 | 171697
12 | 38:09:23 | 04:05:48 | 171698 | 190120
13 | 42:14:71 | 03:39:44 | 190121 | 206589

AccurateRip Summary
Disc not found in AccurateRip DB.

All Tracks
Album gain : -9.83 dB
Peak : 1.000000
Statistics
Read error : 0
Skipped (treated as error) : 0
Edge jitter error (maybe fixed) : 0
Atom jitter error (maybe fixed) : 0
Drift error (maybe fixed) : 0
Dropped bytes error (maybe fixed) : 0
Duplicated bytes error (maybe fixed) : 0

Track 01
Filename : /Users/flaw5001/Desktop/Downloads/Ipod Video/01. War - Sick Puppies - Tri - Polar Deluxe (Disc 1).flac
Pre-gap length : 00:02:00

Track gain : -9.96 dB
Peak : 0.988556
CRC32 hash (test run) : B7212954
CRC32 hash : B7212954
CRC32 hash (skip zero) : B7FA4236
AccurateRip signature : DA84BF99
->Track not present in AccurateRip database.
Statistics
Read error : 0
Skipped (treated as error) : 0
Edge jitter error (maybe fixed) : 0
Atom jitter error (maybe fixed) : 0
Drift error (maybe fixed) : 0
Dropped bytes error (maybe fixed) : 0
Duplicated bytes error (maybe fixed) : 0
Inconsistency in error sectors : 0

Track 02
Filename : /Users/flaw5001/Desktop/Downloads/Ipod Video/02. I Hate You - Sick Puppies - Tri - Polar Deluxe (Disc 1).flac

Track gain : -9.95 dB
Peak : 0.988525
CRC32 hash (test run) : C042674D
CRC32 hash : C042674D
CRC32 hash (skip zero) : 81300A76
AccurateRip signature : AF759302
->Track not present in AccurateRip database.
Statistics
Read error : 0
Skipped (treated as error) : 0
Edge jitter error (maybe fixed) : 0
Atom jitter error (maybe fixed) : 0
Drift error (maybe fixed) : 0
Dropped bytes error (maybe fixed) : 0
Duplicated bytes error (maybe fixed) : 0
Inconsistency in error sectors : 0

Track 03
Filename : /Users/flaw5001/Desktop/Downloads/Ipod Video/03. Rip Tide - Sick Puppies - Tri - Polar Deluxe (Disc 1).flac

Track gain : -9.55 dB
Peak : 1.000000
CRC32 hash (test run) : E583B093
CRC32 hash : E583B093
CRC32 hash (skip zero) : AD67AB59
AccurateRip signature : DBA4F69D
->Track not present in AccurateRip database.
Statistics
Read error : 0
Skipped (treated as error) : 0
Edge jitter error (maybe fixed) : 0
Atom jitter error (maybe fixed) : 0
Drift error (maybe fixed) : 0
Dropped bytes error (maybe fixed) : 0
Duplicated bytes error (maybe fixed) : 0
Inconsistency in error sectors : 0

Track 04
Filename : /Users/flaw5001/Desktop/Downloads/Ipod Video/04. You're Going Down - Sick Puppies - Tri - Polar Deluxe (Disc 1).flac

Track gain : -9.85 dB
Peak : 0.988556
CRC32 hash (test run) : C492C38B
CRC32 hash : C492C38B
CRC32 hash (skip zero) : 4C9ECE4F
AccurateRip signature : F1C22181
->Track not present in AccurateRip database.
Statistics
Read error : 0
Skipped (treated as error) : 0
Edge jitter error (maybe fixed) : 0
Atom jitter error (maybe fixed) : 0
Drift error (maybe fixed) : 0
Dropped bytes error (maybe fixed) : 0
Duplicated bytes error (maybe fixed) : 0
Inconsistency in error sectors : 0

Track 05
Filename : /Users/flaw5001/Desktop/Downloads/Ipod Video/05. Odd One - Sick Puppies - Tri - Polar Deluxe (Disc 1).flac

Track gain : -9.52 dB
Peak : 0.988525
CRC32 hash (test run) : FD05854B
CRC32 hash : FD05854B
CRC32 hash (skip zero) : AE2EE151
AccurateRip signature : 0CED4BB0
->Track not present in AccurateRip database.
Statistics
Read error : 0
Skipped (treated as error) : 0
Edge jitter error (maybe fixed) : 0
Atom jitter error (maybe fixed) : 0
Drift error (maybe fixed) : 0
Dropped bytes error (maybe fixed) : 0
Duplicated bytes error (maybe fixed) : 0
Inconsistency in error sectors : 0

Track 06
Filename : /Users/flaw5001/Desktop/Downloads/Ipod Video/06. So What I Lied - Sick Puppies - Tri - Polar Deluxe (Disc 1).flac

Track gain : -9.80 dB
Peak : 0.988525
CRC32 hash (test run) : 19B07FEF
CRC32 hash : 19B07FEF
CRC32 hash (skip zero) : 5F9AEA9B
AccurateRip signature : 88922E54
->Track not present in AccurateRip database.
Statistics
Read error : 0
Skipped (treated as error) : 0
Edge jitter error (maybe fixed) : 0
Atom jitter error (maybe fixed) : 0
Drift error (maybe fixed) : 0
Dropped bytes error (maybe fixed) : 0
Duplicated bytes error (maybe fixed) : 0
Inconsistency in error sectors : 0

Track 07
Filename : /Users/flaw5001/Desktop/Downloads/Ipod Video/07. Survive - Sick Puppies - Tri - Polar Deluxe (Disc 1).flac

Track gain : -9.56 dB
Peak : 0.986084
CRC32 hash (test run) : 484CBA8F
CRC32 hash : 484CBA8F
CRC32 hash (skip zero) : 28722986
AccurateRip signature : 2D0083F8
->Track not present in AccurateRip database.
Statistics
Read error : 0
Skipped (treated as error) : 0
Edge jitter error (maybe fixed) : 0
Atom jitter error (maybe fixed) : 0
Drift error (maybe fixed) : 0
Dropped bytes error (maybe fixed) : 0
Duplicated bytes error (maybe fixed) : 0
Inconsistency in error sectors : 0

Track 08
Filename : /Users/flaw5001/Desktop/Downloads/Ipod Video/08. Should've Known Better - Sick Puppies - Tri - Polar Deluxe (Disc 1).flac

Track gain : -9.34 dB
Peak : 0.988525
CRC32 hash (test run) : BC32D730
CRC32 hash : BC32D730
CRC32 hash (skip zero) : 27AAB6FB
AccurateRip signature : 4239BF1E
->Track not present in AccurateRip database.
Statistics
Read error : 0
Skipped (treated as error) : 0
Edge jitter error (maybe fixed) : 0
Atom jitter error (maybe fixed) : 0
Drift error (maybe fixed) : 0
Dropped bytes error (maybe fixed) : 0
Duplicated bytes error (maybe fixed) : 0
Inconsistency in error sectors : 0

Track 09
Filename : /Users/flaw5001/Desktop/Downloads/Ipod Video/09. Maybe - Sick Puppies - Tri - Polar Deluxe (Disc 1).flac

Track gain : -10.74 dB
Peak : 1.000000
CRC32 hash (test run) : 537F000F
CRC32 hash : 537F000F
CRC32 hash (skip zero) : D839FFFC
AccurateRip signature : EBF219CF
->Track not present in AccurateRip database.
Statistics
Read error : 0
Skipped (treated as error) : 0
Edge jitter error (maybe fixed) : 0
Atom jitter error (maybe fixed) : 0
Drift error (maybe fixed) : 0
Dropped bytes error (maybe fixed) : 0
Duplicated bytes error (maybe fixed) : 0
Inconsistency in error sectors : 0

Track 10
Filename : /Users/flaw5001/Desktop/Downloads/Ipod Video/10. Don't Walk Away - Sick Puppies - Tri - Polar Deluxe (Disc 1).flac

Track gain : -9.47 dB
Peak : 0.988556
CRC32 hash (test run) : 0BACEC36
CRC32 hash : 0BACEC36
CRC32 hash (skip zero) : 767440AE
AccurateRip signature : 0B6473DD
->Track not present in AccurateRip database.
Statistics
Read error : 0
Skipped (treated as error) : 0
Edge jitter error (maybe fixed) : 0
Atom jitter error (maybe fixed) : 0
Drift error (maybe fixed) : 0
Dropped bytes error (maybe fixed) : 0
Duplicated bytes error (maybe fixed) : 0
Inconsistency in error sectors : 0

Track 11
Filename : /Users/flaw5001/Desktop/Downloads/Ipod Video/11. Master Of The Universe - Sick Puppies - Tri - Polar Deluxe (Disc 1).flac

Track gain : -9.77 dB
Peak : 0.988281
CRC32 hash (test run) : EEEB4079
CRC32 hash : EEEB4079
CRC32 hash (skip zero) : E9FEDBDB
AccurateRip signature : 5537297D
->Track not present in AccurateRip database.
Statistics
Read error : 0
Skipped (treated as error) : 0
Edge jitter error (maybe fixed) : 0
Atom jitter error (maybe fixed) : 0
Drift error (maybe fixed) : 0
Dropped bytes error (maybe fixed) : 0
Duplicated bytes error (maybe fixed) : 0
Inconsistency in error sectors : 0

Track 12
Filename : /Users/flaw5001/Desktop/Downloads/Ipod Video/12. In It For Life - Sick Puppies - Tri - Polar Deluxe (Disc 1).flac

Track gain : -9.95 dB
Peak : 0.988525
CRC32 hash (test run) : ECAF090D
CRC32 hash : ECAF090D
CRC32 hash (skip zero) : 6C5491D2
AccurateRip signature : FE2418D9
->Track not present in AccurateRip database.
Statistics
Read error : 0
Skipped (treated as error) : 0
Edge jitter error (maybe fixed) : 0
Atom jitter error (maybe fixed) : 0
Drift error (maybe fixed) : 0
Dropped bytes error (maybe fixed) : 0
Duplicated bytes error (maybe fixed) : 0
Inconsistency in error sectors : 0

Track 13
Filename : /Users/flaw5001/Desktop/Downloads/Ipod Video/13. White Balloons - Sick Puppies - Tri - Polar Deluxe (Disc 1).flac

Track gain : -8.75 dB
Peak : 0.988525
CRC32 hash (test run) : 5DBC74F2
CRC32 hash : 5DBC74F2
CRC32 hash (skip zero) : 7B96302F
AccurateRip signature : CA051558
->Track not present in AccurateRip database.
Statistics
Read error : 0
Skipped (treated as error) : 0
Edge jitter error (maybe fixed) : 0
Atom jitter error (maybe fixed) : 0
Drift error (maybe fixed) : 0
Dropped bytes error (maybe fixed) : 0
Duplicated bytes error (maybe fixed) : 0
Inconsistency in error sectors : 0

No errors occurred

End of status report

X Lossless Decoder version 20110228 (129.0)

XLD extraction logfile from 2011-06-04 20:38:44 -0700

Sick Puppies / Tri - Polar Deluxe (Disc 2)

Used drive : MATSHITA DVD-R UJ-867 (revision HA13)

Ripper mode : CDParanoia III 10.2
Disable audio cache : OK for the drive with a cache less than 2750KiB
Make use of C2 pointers : NO
Read offset correction : 102
Max retry count : 100
Gap status : Analyzed, Appended

TOC of the extracted CD
Track | Start | Length | Start sector | End sector
---------------------------------------------------------
1 | 00:00:00 | 04:09:45 | 0 | 18719
2 | 04:09:45 | 03:21:69 | 18720 | 33863
3 | 07:31:39 | 03:30:08 | 33864 | 49621
4 | 11:01:47 | 03:45:31 | 49622 | 66527
5 | 14:47:03 | 03:42:33 | 66528 | 83210
6 | 18:29:36 | 04:16:31 | 83211 | 102441
7 | 22:45:67 | 03:24:37 | 102442 | 117778
8 | 26:10:29 | 03:10:08 | 117779 | 132036
9 | 29:20:37 | 03:07:16 | 132037 | 146077
10 | 32:27:53 | 02:47:01 | 146078 | 158603
11 | 35:14:54 | 04:08:25 | 158604 | 177228

AccurateRip Summary
Disc not found in AccurateRip DB.

All Tracks
Album gain : -8.40 dB
Peak : 0.999939
Statistics
Read error : 0
Skipped (treated as error) : 0
Edge jitter error (maybe fixed) : 0
Atom jitter error (maybe fixed) : 0
Drift error (maybe fixed) : 0
Dropped bytes error (maybe fixed) : 0
Duplicated bytes error (maybe fixed) : 0

Track 01
Filename : /Users/flaw5001/Desktop/Downloads/Ipod Video/01. You're Going Down (Unplugged) - Sick Puppies - Tri - Polar Deluxe (Disc 2).flac
Pre-gap length : 00:02:00

Track gain : -6.08 dB
Peak : 0.966217
CRC32 hash (test run) : FBE71A0D
CRC32 hash : FBE71A0D
CRC32 hash (skip zero) : A7787B33
AccurateRip signature : 63197278
->Track not present in AccurateRip database.
Statistics
Read error : 0
Skipped (treated as error) : 0
Edge jitter error (maybe fixed) : 0
Atom jitter error (maybe fixed) : 0
Drift error (maybe fixed) : 0
Dropped bytes error (maybe fixed) : 0
Duplicated bytes error (maybe fixed) : 0
Inconsistency in error sectors : 0

Track 02
Filename : /Users/flaw5001/Desktop/Downloads/Ipod Video/02. Riptide (Unplugged) - Sick Puppies - Tri - Polar Deluxe (Disc 2).flac

Track gain : -6.85 dB
Peak : 0.966217
CRC32 hash (test run) : B7B2ECD2
CRC32 hash : B7B2ECD2
CRC32 hash (skip zero) : 9CA94F49
AccurateRip signature : 552549D7
->Track not present in AccurateRip database.
Statistics
Read error : 0
Skipped (treated as error) : 0
Edge jitter error (maybe fixed) : 0
Atom jitter error (maybe fixed) : 0
Drift error (maybe fixed) : 0
Dropped bytes error (maybe fixed) : 0
Duplicated bytes error (maybe fixed) : 0
Inconsistency in error sectors : 0

Track 03
Filename : /Users/flaw5001/Desktop/Downloads/Ipod Video/03. Maybe (Unplugged) - Sick Puppies - Tri - Polar Deluxe (Disc 2).flac

Track gain : -6.69 dB
Peak : 0.966217
CRC32 hash (test run) : EA3A99FF
CRC32 hash : EA3A99FF
CRC32 hash (skip zero) : FF34F11A
AccurateRip signature : 2787ABE5
->Track not present in AccurateRip database.
Statistics
Read error : 0
Skipped (treated as error) : 0
Edge jitter error (maybe fixed) : 0
Atom jitter error (maybe fixed) : 0
Drift error (maybe fixed) : 0
Dropped bytes error (maybe fixed) : 0
Duplicated bytes error (maybe fixed) : 0
Inconsistency in error sectors : 0

Track 04
Filename : /Users/flaw5001/Desktop/Downloads/Ipod Video/04. Odd One (Unplugged) - Sick Puppies - Tri - Polar Deluxe (Disc 2).flac

Track gain : -6.36 dB
Peak : 0.966187
CRC32 hash (test run) : 4DBDBC43
CRC32 hash : 4DBDBC43
CRC32 hash (skip zero) : C23F853D
AccurateRip signature : C98C17F2
->Track not present in AccurateRip database.
Statistics
Read error : 0
Skipped (treated as error) : 0
Edge jitter error (maybe fixed) : 0
Atom jitter error (maybe fixed) : 0
Drift error (maybe fixed) : 0
Dropped bytes error (maybe fixed) : 0
Duplicated bytes error (maybe fixed) : 0
Inconsistency in error sectors : 0

Track 05
Filename : /Users/flaw5001/Desktop/Downloads/Ipod Video/05. Don't Walk Away (Unplugged) - Sick Puppies - Tri - Polar Deluxe (Disc 2).flac

Track gain : -7.42 dB
Peak : 0.966217
CRC32 hash (test run) : 437C2CD6
CRC32 hash : 437C2CD6
CRC32 hash (skip zero) : BC234409
AccurateRip signature : 3ACD038D
->Track not present in AccurateRip database.
Statistics
Read error : 0
Skipped (treated as error) : 0
Edge jitter error (maybe fixed) : 0
Atom jitter error (maybe fixed) : 0
Drift error (maybe fixed) : 0
Dropped bytes error (maybe fixed) : 0
Duplicated bytes error (maybe fixed) : 0
Inconsistency in error sectors : 0

Track 06
Filename : /Users/flaw5001/Desktop/Downloads/Ipod Video/06. All The Same (Unplugged) - Sick Puppies - Tri - Polar Deluxe (Disc 2).flac

Track gain : -5.82 dB
Peak : 0.966248
CRC32 hash (test run) : 73EB169C
CRC32 hash : 73EB169C
CRC32 hash (skip zero) : C704084D
AccurateRip signature : 29703562
->Track not present in AccurateRip database.
Statistics
Read error : 0
Skipped (treated as error) : 0
Edge jitter error (maybe fixed) : 0
Atom jitter error (maybe fixed) : 0
Drift error (maybe fixed) : 0
Dropped bytes error (maybe fixed) : 0
Duplicated bytes error (maybe fixed) : 0
Inconsistency in error sectors : 0

Track 07
Filename : /Users/flaw5001/Desktop/Downloads/Ipod Video/07. White Balloons (Unplugged) - Sick Puppies - Tri - Polar Deluxe (Disc 2).flac

Track gain : -5.81 dB
Peak : 0.966217
CRC32 hash (test run) : D7C66CB4
CRC32 hash : D7C66CB4
CRC32 hash (skip zero) : 9C8012A2
AccurateRip signature : 4C4E33DA
->Track not present in AccurateRip database.
Statistics
Read error : 0
Skipped (treated as error) : 0
Edge jitter error (maybe fixed) : 0
Atom jitter error (maybe fixed) : 0
Drift error (maybe fixed) : 0
Dropped bytes error (maybe fixed) : 0
Duplicated bytes error (maybe fixed) : 0
Inconsistency in error sectors : 0

Track 08
Filename : /Users/flaw5001/Desktop/Downloads/Ipod Video/08. Dead Space - Sick Puppies - Tri - Polar Deluxe (Disc 2).flac

Track gain : -8.85 dB
Peak : 0.988708
CRC32 hash (test run) : 2D2C232E
CRC32 hash : 2D2C232E
CRC32 hash (skip zero) : AD9ABF23
AccurateRip signature : FCCC1D56
->Track not present in AccurateRip database.
Statistics
Read error : 0
Skipped (treated as error) : 0
Edge jitter error (maybe fixed) : 0
Atom jitter error (maybe fixed) : 0
Drift error (maybe fixed) : 0
Dropped bytes error (maybe fixed) : 0
Duplicated bytes error (maybe fixed) : 0
Inconsistency in error sectors : 0

Track 09
Filename : /Users/flaw5001/Desktop/Downloads/Ipod Video/09. Pretender - Sick Puppies - Tri - Polar Deluxe (Disc 2).flac

Track gain : -9.83 dB
Peak : 0.999939
CRC32 hash (test run) : E0FBC7C0
CRC32 hash : E0FBC7C0
CRC32 hash (skip zero) : CFCAA132
AccurateRip signature : 705F70DF
->Track not present in AccurateRip database.
Statistics
Read error : 0
Skipped (treated as error) : 0
Edge jitter error (maybe fixed) : 0
Atom jitter error (maybe fixed) : 0
Drift error (maybe fixed) : 0
Dropped bytes error (maybe fixed) : 0
Duplicated bytes error (maybe fixed) : 0
Inconsistency in error sectors : 0

Track 10
Filename : /Users/flaw5001/Desktop/Downloads/Ipod Video/10. Til Something Breaks - Sick Puppies - Tri - Polar Deluxe (Disc 2).flac

Track gain : -8.98 dB
Peak : 0.988739
CRC32 hash (test run) : 2363F5F0
CRC32 hash : 2363F5F0
CRC32 hash (skip zero) : A76BDF47
AccurateRip signature : 83603F99
->Track not present in AccurateRip database.
Statistics
Read error : 0
Skipped (treated as error) : 0
Edge jitter error (maybe fixed) : 0
Atom jitter error (maybe fixed) : 0
Drift error (maybe fixed) : 0
Dropped bytes error (maybe fixed) : 0
Duplicated bytes error (maybe fixed) : 0
Inconsistency in error sectors : 0

Track 11
Filename : /Users/flaw5001/Desktop/Downloads/Ipod Video/11. Monsters - Sick Puppies - Tri - Polar Deluxe (Disc 2).flac

Track gain : -8.89 dB
Peak : 0.988739
CRC32 hash (test run) : 01A0476C
CRC32 hash : 01A0476C
CRC32 hash (skip zero) : CF03C3FD
AccurateRip signature : 2DDE39C8
->Track not present in AccurateRip database.
Statistics
Read error : 0
Skipped (treated as error) : 0
Edge jitter error (maybe fixed) : 0
Atom jitter error (maybe fixed) : 0
Drift error (maybe fixed) : 0
Dropped bytes error (maybe fixed) : 0
Duplicated bytes error (maybe fixed) : 0
Inconsistency in error sectors : 0

No errors occurred

End of status report



Трекер:  [ 06-Май-2012 23:10 ]

  

Скачать .torrent

Размер .torrent файла 17 KB


Размер: 1.3 GB
Хэш (hash) релиза: 867724ca5312d1e9f0572cded89bbd3815158734

Еще никто не оставлял запись к записи скачать торрент Sick Puppies - Дискография . Будь первым!

!Обратная связь