Скачать через торрент All Time Low - Дискография бесплатно русская версия torrent активатор

Если у вас наблюдаются проблемы со скриншотами, переходом по ссылками, скачиванием торрентов - проблемы в блокировщике рекламы AdBlock. #хорошегоДня!


Статистика раздачи
Размер:  1.63 GB   |    Зарегистрирован:  5 лет 5 месяцев   |    .torrent скачан:  25 раз   |   
Раздают:  1  
   
Загрузка...
 
Автор Сообщение

Galfimbul

avatar Galfimbul


All Time Low - Дискография (4 альбома, 1 EP)

Год: 2005-2011
Страна: USA
Страна-производитель диска: USA
Жанр: Pop-Punk/Powerpop
Издатель (лейбл): Interscope/Hopeless
Наличие сканов в содержимом раздачи: нет
Тексты: вшиты
Кодек: ALAC
Программа-риповщик : foobar2000 + iTunes (lossless)
Битрейт: lossless
All Time Low — американская поп-панк группа, образовавшаяся в Балтиморе, штат Мериленд. Название группы взято из строк песни New Found Glory — Head on Collision. На данный момент группа выпустила 4 студийных альбома: The Party Scene (2005) , So Wrong, It’s Right (2007), Nothing Personal (2009), Dirty Work (2011); а также 2 EP альбома: The Three Words to Remember in Dealing with the End (2004) и Put Up or Shut Up (2006).
Треклист
01 - Prelude (00:43)
02 - The Party Scene (02:58)
03 - Lullabies (03:58)
04 - Hometown Heroes, National Nobodies (02:53)
05 - Circles (03:20)
06 - Interlude (01:51)
07 - We Say Summer (03:07)
08 - Break Out! Break Out! (03:11)
09 - Running From Lions (03:06)
10 - Noel (04:11)
11 - I Can't Do The One-Two Step (04:03)
12 - The Girl's A Straight Up Hustler (04:00)
13 - Sticks, Stones & Techno (02:24)
Total Time: (39:38)
{\rtf1\mac\ansicpg10000\cocoartf824\cocoasubrtf420
{\fonttbl\f0\fnil\fcharset77 Monaco;}
{\colortbl;\red255\green255\blue255;}
\margl1440\margr1440\vieww9000\viewh8400\viewkind0
\pard\tx560\tx1120\tx1680\tx2240\tx2800\tx3360\tx3920\tx4480\tx5040\tx5600\tx6160\tx6720\ql\qnatural\pardirnatural

\f0\fs20 \cf0 cdda2wav: There is no sound support configured!\
Type: ROM, Vendor 'MATSHITA' Model 'DVD-R UJ-857 ' Revision 'HAEA' MMC+CDDA\
176128 bytes buffer memory requested, transfer size 32768 bytes, 4 buffers, 13 sectors\
#Cdda2wav version 2.01.01a28_darwin_8.10.1_i386_i386, libparanoia support\
AUDIOtrack pre-emphasis copy-permitted tracktype channels\
1-13 no no audio 2\
Table of Contents: total tracks:13, (total time 39:43.62)\
1.( 0:43.29), 2.( 2:58.12), 3.( 3:58.06), 4.( 2:53.05), 5.( 3:20.03),\
6.( 1:50.63), 7.( 3:06.68), 8.( 3:10.41), 9.( 3:06.07), 10.( 4:10.63),\
11.( 4:02.39), 12.( 3:59.60), 13.( 2:23.41)\
\
Table of Contents: starting sectors\
1.( 0), 2.( 3254), 3.( 16616), 4.( 34472), 5.( 47452),\
6.( 62455), 7.( 70768), 8.( 84786), 9.( 99077), 10.( 113034),\
11.( 131847), 12.( 150036), 13.( 168021), lead-out( 178787)\
CDINDEX discid: Co9VxgSHLyGpc_bq5EuCVwwVhEk-\
CDDB discid: 0x8e094f0d\
CD-Text: detected\
CD-Extra: not detected\
Album title: 'All Time Low JAMv1.0' [from ]\
Track 1: '1'\
Track 2: '2'\
Track 3: '3'\
Track 4: '4'\
Track 5: '5'\
Track 6: '6'\
Track 7: '7'\
Track 8: '8'\
Track 9: '9'\
Track 10: '10'\
Track 11: '11'\
Track 12: '12'\
Track 13: '13 (14pg)'\
samplefile size will be 420507068 bytes.\
recording 2383.8266 seconds stereo with 16 bits @ 44100.0 Hz ->'audio'...\
using lib paranoia for reading.\
percent_done:\
0%\
0%\
1%\
2%\
3%\
4%\
5%\
6%\
7%\
8%\
9%\
10%\
11%\
12%\
13%\
14%\
15%\
16%\
17%\
18%\
19%\
20%\
21%\
22%\
23%\
24%\
25%\
26%\
27%\
28%\
29%\
30%\
31%\
32%\
33%\
34%\
35%\
36%\
37%\
38%\
39%\
40%\
41%\
42%\
43%\
44%\
45%\
46%\
47%\
48%\
49%\
50%\
51%\
52%\
53%\
54%\
55%\
56%\
57%\
58%\
59%\
60%\
61%\
62%\
63%\
64%\
65%\
66%\
67%\
68%\
69%\
70%\
71%\
72%\
73%\
74%\
75%\
76%\
77%\
78%\
79%\
80%\
81%\
82%\
83%\
84%\
85%\
86%\
87%\
88%\
89%\
90%\
91%\
92%\
93%\
94%\
95%\
96%\
97%\
98%\
99%\
100% track 1 '1' recorded successfully\
\
100% 0 rderr, 0 skip, 0 atom, 0 edge, 0 drop, 0 dup, 0 drift\
\
100% 37 overlap(0.5 .. 0.5)\
\
0%\
1%\
2%\
3%\
4%\
5%\
6%\
7%\
8%\
9%\
10%\
11%\
12%\
13%\
14%\
15%\
16%\
17%\
18%\
19%\
20%\
21%\
22%\
23%\
24%\
25%\
26%\
27%\
28%\
29%\
30%\
31%\
32%\
33%\
34%\
35%\
36%\
37%\
38%\
39%\
40%\
41%\
42%\
43%\
44%\
45%\
46%\
47%\
48%\
49%\
50%\
51%\
52%\
53%\
54%\
55%\
56%\
57%\
58%\
59%\
60%\
61%\
62%\
63%\
64%\
65%\
66%\
67%\
68%\
69%\
70%\
71%\
72%\
73%\
74%\
75%\
76%\
77%\
78%\
79%\
80%\
81%\
82%\
83%\
84%\
85%\
86%\
87%\
88%\
89%\
90%\
91%\
92%\
93%\
94%\
95%\
96%\
97%\
98%\
99%\
100% track 2 '2' recorded successfully\
\
100% 0 rderr, 0 skip, 0 atom, 0 edge, 0 drop, 0 dup, 0 drift\
\
100% 184 overlap(0.5 .. 0.5)\
\
0%\
1%\
2%\
3%\
4%\
5%\
6%\
7%\
8%\
9%\
10%\
11%\
12%\
13%\
14%\
15%\
16%\
17%\
18%\
19%\
20%\
21%\
22%\
23%\
24%\
25%\
26%\
27%\
28%\
29%\
30%\
31%\
32%\
33%\
34%\
35%\
36%\
37%\
38%\
39%\
40%\
41%\
42%\
43%\
44%\
45%\
46%\
47%\
48%\
49%\
50%\
51%\
52%\
53%\
54%\
55%\
56%\
57%\
58%\
59%\
60%\
61%\
62%\
63%\
64%\
65%\
66%\
67%\
68%\
69%\
70%\
71%\
72%\
73%\
74%\
75%\
76%\
77%\
78%\
79%\
80%\
81%\
82%\
83%\
84%\
85%\
86%\
87%\
88%\
89%\
90%\
91%\
92%\
93%\
94%\
95%\
96%\
97%\
98%\
99%\
100% track 3 '3' recorded successfully\
\
100% 0 rderr, 0 skip, 0 atom, 0 edge, 0 drop, 0 dup, 0 drift\
\
100% 244 overlap(0.5 .. 0.5)\
\
0%\
1%\
2%\
3%\
4%\
5%\
6%\
7%\
8%\
9%\
10%\
11%\
12%\
13%\
14%\
15%\
16%\
17%\
18%\
19%\
20%\
21%\
22%\
23%\
24%\
25%\
26%\
27%\
28%\
29%\
30%\
31%\
32%\
33%\
34%\
35%\
36%\
37%\
38%\
39%\
40%\
41%\
42%\
43%\
44%\
45%\
46%\
47%\
48%\
49%\
50%\
51%\
52%\
53%\
54%\
55%\
56%\
57%\
58%\
59%\
60%\
61%\
62%\
63%\
64%\
65%\
66%\
67%\
68%\
69%\
70%\
71%\
72%\
73%\
74%\
75%\
76%\
77%\
78%\
79%\
80%\
81%\
82%\
83%\
84%\
85%\
86%\
87%\
88%\
89%\
90%\
91%\
92%\
93%\
94%\
95%\
96%\
97%\
98%\
99%\
100% track 4 '4' recorded successfully\
\
100% 0 rderr, 0 skip, 0 atom, 0 edge, 0 drop, 0 dup, 0 drift\
\
100% 178 overlap(0.5 .. 0.5)\
\
0%\
1%\
2%\
3%\
4%\
5%\
6%\
7%\
8%\
9%\
10%\
11%\
12%\
13%\
14%\
15%\
16%\
17%\
18%\
19%\
20%\
21%\
22%\
23%\
24%\
25%\
26%\
27%\
28%\
29%\
30%\
31%\
32%\
33%\
34%\
35%\
36%\
37%\
38%\
39%\
40%\
41%\
42%\
43%\
44%\
45%\
46%\
47%\
48%\
49%\
50%\
51%\
52%\
53%\
54%\
55%\
56%\
57%\
58%\
59%\
60%\
61%\
62%\
63%\
64%\
65%\
66%\
67%\
68%\
69%\
70%\
71%\
72%\
73%\
74%\
75%\
76%\
77%\
78%\
79%\
80%\
81%\
82%\
83%\
84%\
85%\
86%\
87%\
88%\
89%\
90%\
91%\
92%\
93%\
94%\
95%\
96%\
97%\
98%\
99%\
100% track 5 '5' recorded successfully\
\
100% 0 rderr, 0 skip, 0 atom, 0 edge, 0 drop, 0 dup, 0 drift\
\
100% 204 overlap(0.5 .. 0.5)\
\
0%\
1%\
2%\
3%\
4%\
5%\
6%\
7%\
8%\
9%\
10%\
11%\
12%\
13%\
14%\
15%\
16%\
17%\
18%\
19%\
20%\
21%\
22%\
23%\
24%\
25%\
26%\
27%\
28%\
29%\
30%\
31%\
32%\
33%\
34%\
35%\
36%\
37%\
38%\
39%\
40%\
41%\
42%\
43%\
44%\
45%\
46%\
47%\
48%\
49%\
50%\
51%\
52%\
53%\
54%\
55%\
56%\
57%\
58%\
59%\
60%\
61%\
62%\
63%\
64%\
65%\
66%\
67%\
68%\
69%\
70%\
71%\
72%\
73%\
74%\
75%\
76%\
77%\
78%\
79%\
80%\
81%\
82%\
83%\
84%\
85%\
86%\
87%\
88%\
89%\
90%\
91%\
92%\
93%\
94%\
95%\
96%\
97%\
98%\
99%\
100% track 6 '6' recorded successfully\
\
100% 0 rderr, 0 skip, 0 atom, 0 edge, 0 drop, 0 dup, 0 drift\
\
100% 114 overlap(0.5 .. 0.5)\
\
0%\
1%\
2%\
3%\
4%\
5%\
6%\
7%\
8%\
9%\
10%\
11%\
12%\
13%\
14%\
15%\
16%\
17%\
18%\
19%\
20%\
21%\
22%\
23%\
24%\
25%\
26%\
27%\
28%\
29%\
30%\
31%\
32%\
33%\
34%\
35%\
36%\
37%\
38%\
39%\
40%\
41%\
42%\
43%\
44%\
45%\
46%\
47%\
48%\
49%\
50%\
51%\
52%\
53%\
54%\
55%\
56%\
57%\
58%\
59%\
60%\
61%\
62%\
63%\
64%\
65%\
66%\
67%\
68%\
69%\
70%\
71%\
72%\
73%\
74%\
75%\
76%\
77%\
78%\
79%\
80%\
81%\
82%\
83%\
84%\
85%\
86%\
87%\
88%\
89%\
90%\
91%\
92%\
93%\
94%\
95%\
96%\
97%\
98%\
99%\
100% track 7 '7' recorded successfully\
\
100% 0 rderr, 0 skip, 0 atom, 0 edge, 0 drop, 0 dup, 0 drift\
\
100% 192 overlap(0.5 .. 0.5)\
\
0%\
1%\
2%\
3%\
4%\
5%\
6%\
7%\
8%\
9%\
10%\
11%\
12%\
13%\
14%\
15%\
16%\
17%\
18%\
19%\
20%\
21%\
22%\
23%\
24%\
25%\
26%\
27%\
28%\
29%\
30%\
31%\
32%\
33%\
34%\
35%\
36%\
37%\
38%\
39%\
40%\
41%\
42%\
43%\
44%\
45%\
46%\
47%\
48%\
49%\
50%\
51%\
52%\
53%\
54%\
55%\
56%\
57%\
58%\
59%\
60%\
61%\
62%\
63%\
64%\
65%\
66%\
67%\
68%\
69%\
70%\
71%\
72%\
73%\
74%\
75%\
76%\
77%\
78%\
79%\
80%\
81%\
82%\
83%\
84%\
85%\
86%\
87%\
88%\
89%\
90%\
91%\
92%\
93%\
94%\
95%\
96%\
97%\
98%\
99%\
100% track 8 '8' recorded successfully\
\
100% 0 rderr, 0 skip, 0 atom, 0 edge, 0 drop, 0 dup, 0 drift\
\
100% 196 overlap(0.5 .. 0.5)\
\
0%\
1%\
2%\
3%\
4%\
5%\
6%\
7%\
8%\
9%\
10%\
11%\
12%\
13%\
14%\
15%\
16%\
17%\
18%\
19%\
20%\
21%\
22%\
23%\
24%\
25%\
26%\
27%\
28%\
29%\
30%\
31%\
32%\
33%\
34%\
35%\
36%\
37%\
38%\
39%\
40%\
41%\
42%\
43%\
44%\
45%\
46%\
47%\
48%\
49%\
50%\
51%\
52%\
53%\
54%\
55%\
56%\
57%\
58%\
59%\
60%\
61%\
62%\
63%\
64%\
65%\
66%\
67%\
68%\
69%\
70%\
71%\
72%\
73%\
74%\
75%\
76%\
77%\
78%\
79%\
80%\
81%\
82%\
83%\
84%\
85%\
86%\
87%\
88%\
89%\
90%\
91%\
92%\
93%\
94%\
95%\
96%\
97%\
98%\
99%\
100% track 9 '9' recorded successfully\
\
100% 0 rderr, 0 skip, 0 atom, 0 edge, 0 drop, 0 dup, 0 drift\
\
100% 190 overlap(0.5 .. 0.5)\
\
0%\
1%\
2%\
3%\
4%\
5%\
6%\
7%\
8%\
9%\
10%\
11%\
12%\
13%\
14%\
15%\
16%\
17%\
18%\
19%\
20%\
21%\
22%\
23%\
24%\
25%\
26%\
27%\
28%\
29%\
30%\
31%\
32%\
33%\
34%\
35%\
36%\
37%\
38%\
39%\
40%\
41%\
42%\
43%\
44%\
45%\
46%\
47%\
48%\
49%\
50%\
51%\
52%\
53%\
54%\
55%\
56%\
57%\
58%\
59%\
60%\
61%\
62%\
63%\
64%\
65%\
66%\
67%\
68%\
69%\
70%\
71%\
72%\
73%\
74%\
75%\
76%\
77%\
78%\
79%\
80%\
81%\
82%\
83%\
84%\
85%\
86%\
87%\
88%\
89%\
90%\
91%\
92%\
93%\
94%\
95%\
96%\
97%\
98%\
99%\
100% track 10 '10' recorded successfully\
\
100% 0 rderr, 0 skip, 0 atom, 0 edge, 0 drop, 0 dup, 0 drift\
\
100% 258 overlap(0.5 .. 0.5)\
\
0%\
1%\
2%\
3%\
4%\
5%\
6%\
7%\
8%\
9%\
10%\
11%\
12%\
13%\
14%\
15%\
16%\
17%\
18%\
19%\
20%\
21%\
22%\
23%\
24%\
25%\
26%\
27%\
28%\
29%\
30%\
31%\
32%\
33%\
34%\
35%\
36%\
37%\
38%\
39%\
40%\
41%\
42%\
43%\
44%\
45%\
46%\
47%\
48%\
49%\
50%\
51%\
52%\
53%\
54%\
55%\
56%\
57%\
58%\
59%\
60%\
61%\
62%\
63%\
64%\
65%\
66%\
67%\
68%\
69%\
70%\
71%\
72%\
73%\
74%\
75%\
76%\
77%\
78%\
79%\
80%\
81%\
82%\
83%\
84%\
85%\
86%\
87%\
88%\
89%\
90%\
91%\
92%\
93%\
94%\
95%\
96%\
97%\
98%\
99%\
100% track 11 '11' recorded successfully\
\
100% 0 rderr, 0 skip, 0 atom, 0 edge, 0 drop, 0 dup, 0 drift\
\
100% 250 overlap(0.5 .. 0.5)\
\
0%\
1%\
2%\
3%\
4%\
5%\
6%\
7%\
8%\
9%\
10%\
11%\
12%\
13%\
14%\
15%\
16%\
17%\
18%\
19%\
20%\
21%\
22%\
23%\
24%\
25%\
26%\
27%\
28%\
29%\
30%\
31%\
32%\
33%\
34%\
35%\
36%\
37%\
38%\
39%\
40%\
41%\
42%\
43%\
44%\
45%\
46%\
47%\
48%\
49%\
50%\
51%\
52%\
53%\
54%\
55%\
56%\
57%\
58%\
59%\
60%\
61%\
62%\
63%\
64%\
65%\
66%\
67%\
68%\
69%\
70%\
71%\
72%\
73%\
74%\
75%\
76%\
77%\
78%\
79%\
80%\
81%\
82%\
83%\
84%\
85%\
86%\
87%\
88%\
89%\
90%\
91%\
92%\
93%\
94%\
95%\
96%\
97%\
98%\
99%\
100% track 12 '12' recorded successfully\
\
100% 0 rderr, 0 skip, 0 atom, 0 edge, 0 drop, 0 dup, 0 drift\
\
100% 246 overlap(0.5 .. 0.5)\
\
0%\
1%\
2%\
3%\
4%\
5%\
6%\
7%\
8%\
9%\
10%\
11%\
12%\
13%\
14%\
15%\
16%\
17%\
18%\
19%\
20%\
21%\
22%\
23%\
24%\
25%\
26%\
27%\
28%\
29%\
30%\
31%\
32%\
33%\
34%\
35%\
36%\
37%\
38%\
39%\
40%\
41%\
42%\
43%\
44%\
45%\
46%\
47%\
48%\
49%\
50%\
51%\
52%\
53%\
54%\
55%\
56%\
57%\
58%\
59%\
60%\
61%\
62%\
63%\
64%\
65%\
66%\
67%\
68%\
69%\
70%\
71%\
72%\
73%\
74%\
75%\
76%\
77%\
78%\
79%\
80%\
81%\
82%\
83%\
84%\
85%\
86%\
87%\
88%\
89%\
90%\
91%\
92%\
93%\
94%\
95%\
96%\
97%\
98%\
99%\
100% track 13 '13 (14pg)' recorded successfully\
\
100% 0 rderr, 0 skip, 0 atom, 0 edge, 0 drop, 0 dup, 0 drift\
\
100% 146 overlap(0.5 .. 0.5)\
\
}
01 - Coffee Shop Soundtrack (03:01)
02 - Break Out! Break Out! (03:04)
03 - The Girl's A Straight Up Hustler (03:38)
04 - Jesey Rae (03:38)
05 - The Party Scene (02:58)
06 - Running From Lions (03:01)
07 - Lullabies (04:03)
Total Time: (23:19)
EAC extraction logfile from 19. August 2007, 2:05 for CD
All Time Low / Put Up Or Shut Up

Used drive : SONY DVD+-RW DW-D56A Adapter: 1 ID: 0
Read mode : Secure with NO C2, accurate stream, disable cache
Read offset correction : 12
Overread into Lead-In and Lead-Out : No

Used output format : C:\Program Files\Exact Audio Copy\flac-1.1.4-win\bin\flac.exe (User Defined Encoder)
192 kBit/s
Additional command line options : -V -5 -T "artist=%a" -T "title=%t" -T "album=%g" -T "date=%y" -T "tracknumber=%n" -T "genre=%m" %s

Other options :
Fill up missing offset samples with silence : Yes
Delete leading and trailing silent blocks : No
Installed external ASPI interface

Track 1
Filename C:\Documents and Settings\John\Desktop\All Time Low - Put Up Or Shut Up FLAC\01 - All Time Low - Coffee Shop Soundtrack.wav

Pre-gap length 0:00:02.00

Peak level 95.5 %
Track quality 100.0 %
Test CRC B026EA93
Copy CRC B026EA93
Copy OK

Track 2
Filename C:\Documents and Settings\John\Desktop\All Time Low - Put Up Or Shut Up FLAC\02 - All Time Low - Break Out! Break Out!.wav

Peak level 98.8 %
Track quality 100.0 %
Test CRC 4673559E
Copy CRC 4673559E
Copy OK

Track 3
Filename C:\Documents and Settings\John\Desktop\All Time Low - Put Up Or Shut Up FLAC\03 - All Time Low - The Girl's A Straight-Up Hustler.wav

Pre-gap length 0:00:01.10

Peak level 97.7 %
Track quality 100.0 %
Test CRC 2FAFFD89
Copy CRC 2FAFFD89
Copy OK

Track 4
Filename C:\Documents and Settings\John\Desktop\All Time Low - Put Up Or Shut Up FLAC\04 - All Time Low - Jesey Rae.wav

Pre-gap length 0:00:01.24

Peak level 97.7 %
Track quality 100.0 %
Test CRC 67036B8C
Copy CRC 67036B8C
Copy OK

Track 5
Filename C:\Documents and Settings\John\Desktop\All Time Low - Put Up Or Shut Up FLAC\05 - All Time Low - The Party Scene.wav

Peak level 97.7 %
Track quality 100.0 %
Test CRC 055B8972
Copy CRC 055B8972
Copy OK

Track 6
Filename C:\Documents and Settings\John\Desktop\All Time Low - Put Up Or Shut Up FLAC\06 - All Time Low - Running From Lions.wav

Peak level 97.7 %
Track quality 100.0 %
Test CRC C16F78CC
Copy CRC C16F78CC
Copy OK

Track 7
Filename C:\Documents and Settings\John\Desktop\All Time Low - Put Up Or Shut Up FLAC\07 - All Time Low - Lullabies.wav

Peak level 95.5 %
Track quality 100.0 %
Test CRC 73F9FCE4
Copy CRC 73F9FCE4
Copy OK

No errors occured

End of status report
01 - This Is How We Do (02:30)
02 - Let It Roll (03:00)
03 - Six Feet Under The Stars (03:37)
04 - Holly (Would You Turn Me On?) (03:52)
05 - The Beach (03:02)
06 - Dear Maria, Count Me In (03:03)
07 - Shameless (03:42)
08 - Remembering Sunday (04:17)
09 - Vegas (02:50)
10 - Stay Awake (Dreams Only Last For A Night) (03:34)
11 - Come One,Come All (03:33)
12 - Poppin' Champagne (03:20)
Bonus Tracks
13 - Break Out! Break Out! (Acoustic) (03:05)
14 - Stay Awake (Dreams Only Last For A Night) (Acoustic) (03:36)
Total Time: (46:51)
X Lossless Decoder version 20090930 (110.0)

XLD extraction logfile from 2009-10-09 22:27:23 -0400

All Time Low / So Wrong, It's Right

Used drive : MATSHITA DVD-R UJ-867 (revision HA13)

Use cdparanoia mode : YES (CDParanoia III 10.2 engine)
Disable audio cache : OK for the drive with cache less than 2750KB
Make use of C2 pointers : NO
Read offset correction : 102
Max retry count : 100

TOC of the extracted CD
Track | Start | Length | Start sector | End sector
---------------------------------------------------------
1 | 00:00:00 | 02:29:46 | 0 | 11220
2 | 02:29:46 | 03:00:33 | 11221 | 24753
3 | 05:30:04 | 03:36:41 | 24754 | 40994
4 | 09:06:45 | 03:51:73 | 40995 | 58392
5 | 12:58:43 | 03:01:54 | 58393 | 72021
6 | 16:00:22 | 03:02:62 | 72022 | 85733
7 | 19:03:09 | 03:41:55 | 85734 | 102363
8 | 22:44:64 | 04:16:55 | 102364 | 121618
9 | 27:01:44 | 02:49:51 | 121619 | 134344
10 | 29:51:20 | 03:34:26 | 134345 | 150420
11 | 33:25:46 | 03:32:42 | 150421 | 166362
12 | 36:58:13 | 03:19:74 | 166363 | 181361
13 | 40:18:12 | 03:05:15 | 181362 | 195251
14 | 43:23:27 | 03:36:37 | 195252 | 211488
15 | 49:31:64 | 06:41:09 | 222889 | 252972

All Tracks
Album gain : -10.45 dB
Peak : 1.000000

Track 01
Filename : /Users/Nick/Documents/XLD/01 All Time Low - This Is How We Do.flac

Track gain : -11.07 dB
Peak : 1.000000
CRC32 hash (test run) : 3583336D
CRC32 hash : 3583336D
CRC32 hash (skip zero) : 0CED935D
AccurateRip signature : F6F77D21
->Track not present in AccurateRip database.
Statistics
Read error : 0
Skipped (treated as error) : 0
Edge jitter error (maybe fixed) : 0
Atom jitter error (maybe fixed) : 0
Drift error (maybe fixed) : 0
Dropped bytes error (maybe fixed) : 0
Duplicated bytes error (maybe fixed) : 0
Inconsistency in error sectors : 0

Track 02
Filename : /Users/Nick/Documents/XLD/02 All Time Low - Let It Roll.flac

Track gain : -10.42 dB
Peak : 1.000000
CRC32 hash (test run) : BF8D4EC4
CRC32 hash : BF8D4EC4
CRC32 hash (skip zero) : 78C3908B
AccurateRip signature : B0F83D73
->Track not present in AccurateRip database.
Statistics
Read error : 0
Skipped (treated as error) : 0
Edge jitter error (maybe fixed) : 0
Atom jitter error (maybe fixed) : 0
Drift error (maybe fixed) : 0
Dropped bytes error (maybe fixed) : 0
Duplicated bytes error (maybe fixed) : 0
Inconsistency in error sectors : 0

Track 03
Filename : /Users/Nick/Documents/XLD/03 All Time Low - Six Feet Under The Stars.flac

Track gain : -10.76 dB
Peak : 1.000000
CRC32 hash (test run) : 34C7DBA5
CRC32 hash : 34C7DBA5
CRC32 hash (skip zero) : A64DC523
AccurateRip signature : D21414A0
->Track not present in AccurateRip database.
Statistics
Read error : 0
Skipped (treated as error) : 0
Edge jitter error (maybe fixed) : 0
Atom jitter error (maybe fixed) : 0
Drift error (maybe fixed) : 0
Dropped bytes error (maybe fixed) : 0
Duplicated bytes error (maybe fixed) : 0
Inconsistency in error sectors : 0

Track 04
Filename : /Users/Nick/Documents/XLD/04 All Time Low - Holly (Would You Turn Me On?).flac

Track gain : -10.59 dB
Peak : 1.000000
CRC32 hash (test run) : 61B9ED14
CRC32 hash : 61B9ED14
CRC32 hash (skip zero) : 3A1A8CEF
AccurateRip signature : EB625C07
->Track not present in AccurateRip database.
Statistics
Read error : 0
Skipped (treated as error) : 0
Edge jitter error (maybe fixed) : 0
Atom jitter error (maybe fixed) : 0
Drift error (maybe fixed) : 0
Dropped bytes error (maybe fixed) : 0
Duplicated bytes error (maybe fixed) : 0
Inconsistency in error sectors : 0

Track 05
Filename : /Users/Nick/Documents/XLD/05 All Time Low - The Beach.flac

Track gain : -10.96 dB
Peak : 1.000000
CRC32 hash (test run) : A0DB8516
CRC32 hash : A0DB8516
CRC32 hash (skip zero) : D9D6FA8F
AccurateRip signature : B91D7BEF
->Track not present in AccurateRip database.
Statistics
Read error : 0
Skipped (treated as error) : 0
Edge jitter error (maybe fixed) : 0
Atom jitter error (maybe fixed) : 0
Drift error (maybe fixed) : 0
Dropped bytes error (maybe fixed) : 0
Duplicated bytes error (maybe fixed) : 0
Inconsistency in error sectors : 0

Track 06
Filename : /Users/Nick/Documents/XLD/06 All Time Low - Dear Maria, Count Me In.flac

Track gain : -10.19 dB
Peak : 1.000000
CRC32 hash (test run) : DDB0117F
CRC32 hash : DDB0117F
CRC32 hash (skip zero) : 6E6721F8
AccurateRip signature : DEC998AE
->Track not present in AccurateRip database.
Statistics
Read error : 0
Skipped (treated as error) : 0
Edge jitter error (maybe fixed) : 0
Atom jitter error (maybe fixed) : 0
Drift error (maybe fixed) : 0
Dropped bytes error (maybe fixed) : 0
Duplicated bytes error (maybe fixed) : 0
Inconsistency in error sectors : 0

Track 07
Filename : /Users/Nick/Documents/XLD/07 All Time Low - Shameless.flac

Track gain : -10.37 dB
Peak : 1.000000
CRC32 hash (test run) : 32A69442
CRC32 hash : 32A69442
CRC32 hash (skip zero) : 8D80B65D
AccurateRip signature : 1D772AC2
->Track not present in AccurateRip database.
Statistics
Read error : 0
Skipped (treated as error) : 0
Edge jitter error (maybe fixed) : 0
Atom jitter error (maybe fixed) : 0
Drift error (maybe fixed) : 0
Dropped bytes error (maybe fixed) : 0
Duplicated bytes error (maybe fixed) : 0
Inconsistency in error sectors : 0

Track 08
Filename : /Users/Nick/Documents/XLD/08 All Time Low - Remembering Sunday.flac

Track gain : -9.80 dB
Peak : 1.000000
CRC32 hash (test run) : 1E038B8C
CRC32 hash : 1E038B8C
CRC32 hash (skip zero) : 887AA951
AccurateRip signature : 7093F5DF
->Track not present in AccurateRip database.
Statistics
Read error : 0
Skipped (treated as error) : 0
Edge jitter error (maybe fixed) : 0
Atom jitter error (maybe fixed) : 0
Drift error (maybe fixed) : 0
Dropped bytes error (maybe fixed) : 0
Duplicated bytes error (maybe fixed) : 0
Inconsistency in error sectors : 0

Track 09
Filename : /Users/Nick/Documents/XLD/09 All Time Low - Vegas.flac

Track gain : -9.67 dB
Peak : 1.000000
CRC32 hash (test run) : 43BFA258
CRC32 hash : 43BFA258
CRC32 hash (skip zero) : 3660EAB8
AccurateRip signature : 473FB278
->Track not present in AccurateRip database.
Statistics
Read error : 0
Skipped (treated as error) : 0
Edge jitter error (maybe fixed) : 0
Atom jitter error (maybe fixed) : 0
Drift error (maybe fixed) : 0
Dropped bytes error (maybe fixed) : 0
Duplicated bytes error (maybe fixed) : 0
Inconsistency in error sectors : 0

Track 10
Filename : /Users/Nick/Documents/XLD/10 All Time Low - Stay Awake (Dreams Only Last For A Night).flac

Track gain : -10.71 dB
Peak : 1.000000
CRC32 hash (test run) : 75928A51
CRC32 hash : 75928A51
CRC32 hash (skip zero) : 19B09FB2
AccurateRip signature : 13C8A170
->Track not present in AccurateRip database.
Statistics
Read error : 0
Skipped (treated as error) : 0
Edge jitter error (maybe fixed) : 0
Atom jitter error (maybe fixed) : 0
Drift error (maybe fixed) : 0
Dropped bytes error (maybe fixed) : 0
Duplicated bytes error (maybe fixed) : 0
Inconsistency in error sectors : 0

Track 11
Filename : /Users/Nick/Documents/XLD/11 All Time Low - Come One, Come All.flac

Track gain : -10.56 dB
Peak : 1.000000
CRC32 hash (test run) : AAE82CD5
CRC32 hash : AAE82CD5
CRC32 hash (skip zero) : 648874FA
AccurateRip signature : 41DE16DB
->Track not present in AccurateRip database.
Statistics
Read error : 0
Skipped (treated as error) : 0
Edge jitter error (maybe fixed) : 0
Atom jitter error (maybe fixed) : 0
Drift error (maybe fixed) : 0
Dropped bytes error (maybe fixed) : 0
Duplicated bytes error (maybe fixed) : 0
Inconsistency in error sectors : 0

Track 12
Filename : /Users/Nick/Documents/XLD/12 All Time Low - Poppin' Champagne.flac

Track gain : -10.18 dB
Peak : 1.000000
CRC32 hash (test run) : 6E461883
CRC32 hash : 6E461883
CRC32 hash (skip zero) : AD2ACC0D
AccurateRip signature : FDE4C103
->Track not present in AccurateRip database.
Statistics
Read error : 0
Skipped (treated as error) : 0
Edge jitter error (maybe fixed) : 0
Atom jitter error (maybe fixed) : 0
Drift error (maybe fixed) : 0
Dropped bytes error (maybe fixed) : 0
Duplicated bytes error (maybe fixed) : 0
Inconsistency in error sectors : 0

Track 13
Filename : /Users/Nick/Documents/XLD/13 All Time Low - Break Out! Break Out! (Acoustic).flac

Track gain : -7.47 dB
Peak : 0.977386
CRC32 hash (test run) : 0626BFAA
CRC32 hash : 0626BFAA
CRC32 hash (skip zero) : B604675A
AccurateRip signature : 2DA79758
->Track not present in AccurateRip database.
Statistics
Read error : 0
Skipped (treated as error) : 0
Edge jitter error (maybe fixed) : 0
Atom jitter error (maybe fixed) : 0
Drift error (maybe fixed) : 0
Dropped bytes error (maybe fixed) : 0
Duplicated bytes error (maybe fixed) : 0
Inconsistency in error sectors : 0

Track 14
Filename : /Users/Nick/Documents/XLD/14 All Time Low - Stay Awake (Dreams Only Last For A Night) (Acoustic).flac

Track gain : -5.55 dB
Peak : 1.000000
CRC32 hash (test run) : 3F77039B
CRC32 hash : 3F77039B
CRC32 hash (skip zero) : BBAF6F2B
AccurateRip signature : 25BDFD6C
->Track not present in AccurateRip database.
Statistics
Read error : 0
Skipped (treated as error) : 0
Edge jitter error (maybe fixed) : 0
Atom jitter error (maybe fixed) : 0
Drift error (maybe fixed) : 0
Dropped bytes error (maybe fixed) : 0
Duplicated bytes error (maybe fixed) : 0
Inconsistency in error sectors : 0

No errors occurred

End of status report
01 - Weightless (03:18)
02 - Break Your Little Heart (02:52)
03 - Damned If I Do Ya (Damned If I Don't) (03:07)
04 - Lost In Stereo (03:47)
05 - Stella (03:24)
06 - Sick Little Games (03:36)
07 - Hello, Brooklyn (03:30)
08 - Walls (03:11)
09 - Too Much (04:15)
10 - Keep The Change, You Filthy Animal (03:20)
11 - A Party Song (The Walk Of Shame) (02:59)
12 - Therapy (03:45)
Bonus Tracks
13 - Poison (03:19)
14 - Weightless (The Secret Handshake Remix) (03:08)
15 - Lost In Stereo (Cobra Starship Suave Suarez Remix) (03:56)
16 - Dear Maria, Count Me In (Connect Sets Acoustic) (03:26)
17 - Coffee Shop Soundtrack (Acoustic Remix) (03:56)
Total Time: (58:41)
X Lossless Decoder version 20090910 (109.7)

XLD extraction logfile from 2009-09-21 17:39:05 -0400

All Time Low / Nothing Personal

Used drive : MATSHITA DVD-R UJ-867 (revision HA13)

Use cdparanoia mode : YES (CDParanoia III 10.2 engine)
Disable audio cache : OK for the drive with cache less than 2750KB
Make use of C2 pointers : NO
Read offset correction : 102
Max retry count : 100

TOC of the extracted CD
Track | Start | Length | Start sector | End sector
---------------------------------------------------------
1 | 00:00:00 | 03:18:00 | 0 | 14849
2 | 03:18:00 | 02:51:54 | 14850 | 27728
3 | 06:09:54 | 03:07:01 | 27729 | 41754
4 | 09:16:55 | 03:47:36 | 41755 | 58815
5 | 13:04:16 | 03:24:24 | 58816 | 74139
6 | 16:28:40 | 03:36:02 | 74140 | 90341
7 | 20:04:42 | 03:29:62 | 90342 | 106078
8 | 23:34:29 | 03:11:14 | 106079 | 120417
9 | 26:45:43 | 04:14:71 | 120418 | 139538
10 | 31:00:39 | 03:20:11 | 139539 | 154549
11 | 34:20:50 | 02:59:13 | 154550 | 167987
12 | 37:19:63 | 03:44:55 | 167988 | 184842
13 | 41:04:43 | 03:18:71 | 184843 | 199763
14 | 44:23:39 | 03:08:22 | 199764 | 213885
15 | 47:31:61 | 03:55:72 | 213886 | 231582
16 | 51:27:58 | 03:25:69 | 231583 | 247026
17 | 54:53:52 | 03:55:53 | 247027 | 264704
18 | 61:21:30 | 04:48:53 | 276105 | 297757

All Tracks
Album gain : -10.40 dB
Peak : 0.999969

Track 01
Filename : /Users/Nick/Desktop/All Time Low - Nothing Personal (UK Edition) - Flac/01 All Time Low - Weightless.flac

Track gain : -10.63 dB
Peak : 0.999969
CRC32 hash (test run) : 29DC838F
CRC32 hash : 29DC838F
CRC32 hash (skip zero) : 2B75D653
AccurateRip signature : AA75F72A
->Track not present in AccurateRip database.
Statistics
Read error : 0
Skipped (treated as error) : 0
Edge jitter error (maybe fixed) : 0
Atom jitter error (maybe fixed) : 0
Drift error (maybe fixed) : 0
Dropped bytes error (maybe fixed) : 0
Duplicated bytes error (maybe fixed) : 0
Inconsistency in error sectors : 0

Track 02
Filename : /Users/Nick/Desktop/All Time Low - Nothing Personal (UK Edition) - Flac/02 All Time Low - Break Your Little Heart.flac

Track gain : -10.45 dB
Peak : 0.999969
CRC32 hash (test run) : 332E3905
CRC32 hash : 332E3905
CRC32 hash (skip zero) : 6B8EFDC0
AccurateRip signature : 804DD1FE
->Track not present in AccurateRip database.
Statistics
Read error : 0
Skipped (treated as error) : 0
Edge jitter error (maybe fixed) : 0
Atom jitter error (maybe fixed) : 0
Drift error (maybe fixed) : 0
Dropped bytes error (maybe fixed) : 0
Duplicated bytes error (maybe fixed) : 0
Inconsistency in error sectors : 0

Track 03
Filename : /Users/Nick/Desktop/All Time Low - Nothing Personal (UK Edition) - Flac/03 All Time Low - Damned If I Do Ya (Damned If I Don't).flac

Track gain : -10.34 dB
Peak : 0.999969
CRC32 hash (test run) : EDB99BD1
CRC32 hash : EDB99BD1
CRC32 hash (skip zero) : 8CE8D4FF
AccurateRip signature : 5DF65915
->Track not present in AccurateRip database.
Statistics
Read error : 0
Skipped (treated as error) : 0
Edge jitter error (maybe fixed) : 0
Atom jitter error (maybe fixed) : 0
Drift error (maybe fixed) : 0
Dropped bytes error (maybe fixed) : 0
Duplicated bytes error (maybe fixed) : 0
Inconsistency in error sectors : 0

Track 04
Filename : /Users/Nick/Desktop/All Time Low - Nothing Personal (UK Edition) - Flac/04 All Time Low - Lost In Stereo.flac

Track gain : -10.65 dB
Peak : 0.999969
CRC32 hash (test run) : 9A7BC891
CRC32 hash : 9A7BC891
CRC32 hash (skip zero) : DB81DC15
AccurateRip signature : 4A75D151
->Track not present in AccurateRip database.
Statistics
Read error : 0
Skipped (treated as error) : 0
Edge jitter error (maybe fixed) : 0
Atom jitter error (maybe fixed) : 0
Drift error (maybe fixed) : 0
Dropped bytes error (maybe fixed) : 0
Duplicated bytes error (maybe fixed) : 0
Inconsistency in error sectors : 0

Track 05
Filename : /Users/Nick/Desktop/All Time Low - Nothing Personal (UK Edition) - Flac/05 All Time Low - Stella.flac

Track gain : -10.44 dB
Peak : 0.999969
CRC32 hash (test run) : 372663F9
CRC32 hash : 372663F9
CRC32 hash (skip zero) : DA828180
AccurateRip signature : 36943F67
->Track not present in AccurateRip database.
Statistics
Read error : 0
Skipped (treated as error) : 0
Edge jitter error (maybe fixed) : 0
Atom jitter error (maybe fixed) : 0
Drift error (maybe fixed) : 0
Dropped bytes error (maybe fixed) : 0
Duplicated bytes error (maybe fixed) : 0
Inconsistency in error sectors : 0

Track 06
Filename : /Users/Nick/Desktop/All Time Low - Nothing Personal (UK Edition) - Flac/06 All Time Low - Sick Little Games.flac

Track gain : -9.87 dB
Peak : 0.999969
CRC32 hash (test run) : B99BEA80
CRC32 hash : B99BEA80
CRC32 hash (skip zero) : F682031A
AccurateRip signature : 7E75D4E6
->Track not present in AccurateRip database.
Statistics
Read error : 0
Skipped (treated as error) : 0
Edge jitter error (maybe fixed) : 0
Atom jitter error (maybe fixed) : 0
Drift error (maybe fixed) : 0
Dropped bytes error (maybe fixed) : 0
Duplicated bytes error (maybe fixed) : 0
Inconsistency in error sectors : 0

Track 07
Filename : /Users/Nick/Desktop/All Time Low - Nothing Personal (UK Edition) - Flac/07 All Time Low - Hello, Brooklyn.flac

Track gain : -11.04 dB
Peak : 0.999969
CRC32 hash (test run) : 313997BD
CRC32 hash : 313997BD
CRC32 hash (skip zero) : 7B37C453
AccurateRip signature : C2A54E4D
->Track not present in AccurateRip database.
Statistics
Read error : 0
Skipped (treated as error) : 0
Edge jitter error (maybe fixed) : 0
Atom jitter error (maybe fixed) : 0
Drift error (maybe fixed) : 0
Dropped bytes error (maybe fixed) : 0
Duplicated bytes error (maybe fixed) : 0
Inconsistency in error sectors : 0

Track 08
Filename : /Users/Nick/Desktop/All Time Low - Nothing Personal (UK Edition) - Flac/08 All Time Low - Walls.flac

Track gain : -10.52 dB
Peak : 0.999969
CRC32 hash (test run) : 44065FC2
CRC32 hash : 44065FC2
CRC32 hash (skip zero) : A66F3985
AccurateRip signature : 6AABA23A
->Track not present in AccurateRip database.
Statistics
Read error : 0
Skipped (treated as error) : 0
Edge jitter error (maybe fixed) : 0
Atom jitter error (maybe fixed) : 0
Drift error (maybe fixed) : 0
Dropped bytes error (maybe fixed) : 0
Duplicated bytes error (maybe fixed) : 0
Inconsistency in error sectors : 0

Track 09
Filename : /Users/Nick/Desktop/All Time Low - Nothing Personal (UK Edition) - Flac/09 All Time Low - Too Much.flac

Track gain : -9.27 dB
Peak : 0.999969
CRC32 hash (test run) : 666962B2
CRC32 hash : 666962B2
CRC32 hash (skip zero) : BF1353E4
AccurateRip signature : 1227F0F6
->Track not present in AccurateRip database.
Statistics
Read error : 0
Skipped (treated as error) : 0
Edge jitter error (maybe fixed) : 0
Atom jitter error (maybe fixed) : 0
Drift error (maybe fixed) : 0
Dropped bytes error (maybe fixed) : 0
Duplicated bytes error (maybe fixed) : 0
Inconsistency in error sectors : 0

Track 10
Filename : /Users/Nick/Desktop/All Time Low - Nothing Personal (UK Edition) - Flac/10 All Time Low - Keep The Change, You Filthy Animal.flac

Track gain : -10.95 dB
Peak : 0.999969
CRC32 hash (test run) : 98AD8F40
CRC32 hash : 98AD8F40
CRC32 hash (skip zero) : BB114DED
AccurateRip signature : 82B85C44
->Track not present in AccurateRip database.
Statistics
Read error : 0
Skipped (treated as error) : 0
Edge jitter error (maybe fixed) : 0
Atom jitter error (maybe fixed) : 0
Drift error (maybe fixed) : 0
Dropped bytes error (maybe fixed) : 0
Duplicated bytes error (maybe fixed) : 0
Inconsistency in error sectors : 0

Track 11
Filename : /Users/Nick/Desktop/All Time Low - Nothing Personal (UK Edition) - Flac/11 All Time Low - A Party Song (The Walk of Shame).flac

Track gain : -10.33 dB
Peak : 0.999969
CRC32 hash (test run) : 58981003
CRC32 hash : 58981003
CRC32 hash (skip zero) : FF47ECCD
AccurateRip signature : 18355FF8
->Track not present in AccurateRip database.
Statistics
Read error : 0
Skipped (treated as error) : 0
Edge jitter error (maybe fixed) : 0
Atom jitter error (maybe fixed) : 0
Drift error (maybe fixed) : 0
Dropped bytes error (maybe fixed) : 0
Duplicated bytes error (maybe fixed) : 0
Inconsistency in error sectors : 0

Track 12
Filename : /Users/Nick/Desktop/All Time Low - Nothing Personal (UK Edition) - Flac/12 All Time Low - Therapy.flac

Track gain : -10.15 dB
Peak : 0.999969
CRC32 hash (test run) : 07DEAC22
CRC32 hash : 07DEAC22
CRC32 hash (skip zero) : CECFB08D
AccurateRip signature : 2D8EC5E7
->Track not present in AccurateRip database.
Statistics
Read error : 0
Skipped (treated as error) : 0
Edge jitter error (maybe fixed) : 0
Atom jitter error (maybe fixed) : 0
Drift error (maybe fixed) : 0
Dropped bytes error (maybe fixed) : 0
Duplicated bytes error (maybe fixed) : 0
Inconsistency in error sectors : 0

Track 13
Filename : /Users/Nick/Desktop/All Time Low - Nothing Personal (UK Edition) - Flac/13 All Time Low - Poison.flac

Track gain : -10.82 dB
Peak : 0.999969
CRC32 hash (test run) : BFDD4DCD
CRC32 hash : BFDD4DCD
CRC32 hash (skip zero) : F535B9D9
AccurateRip signature : 02DA2D28
->Track not present in AccurateRip database.
Statistics
Read error : 0
Skipped (treated as error) : 0
Edge jitter error (maybe fixed) : 0
Atom jitter error (maybe fixed) : 0
Drift error (maybe fixed) : 0
Dropped bytes error (maybe fixed) : 0
Duplicated bytes error (maybe fixed) : 0
Inconsistency in error sectors : 0

Track 14
Filename : /Users/Nick/Desktop/All Time Low - Nothing Personal (UK Edition) - Flac/14 All Time Low - Weightless (The Secret Handshake Remix).flac

Track gain : -8.25 dB
Peak : 0.988525
CRC32 hash (test run) : 1FBBC8CF
CRC32 hash : 1FBBC8CF
CRC32 hash (skip zero) : 454CF055
AccurateRip signature : 4F76B042
->Track not present in AccurateRip database.
Statistics
Read error : 0
Skipped (treated as error) : 0
Edge jitter error (maybe fixed) : 0
Atom jitter error (maybe fixed) : 0
Drift error (maybe fixed) : 0
Dropped bytes error (maybe fixed) : 0
Duplicated bytes error (maybe fixed) : 0
Inconsistency in error sectors : 0

Track 15
Filename : /Users/Nick/Desktop/All Time Low - Nothing Personal (UK Edition) - Flac/15 All Time Low - Lost In Stereo (Cobra Starship Suave Suarez Remix).flac

Track gain : -9.17 dB
Peak : 0.988525
CRC32 hash (test run) : A89950DE
CRC32 hash : A89950DE
CRC32 hash (skip zero) : 2F4AB891
AccurateRip signature : 58697CA2
->Track not present in AccurateRip database.
Statistics
Read error : 0
Skipped (treated as error) : 0
Edge jitter error (maybe fixed) : 0
Atom jitter error (maybe fixed) : 0
Drift error (maybe fixed) : 0
Dropped bytes error (maybe fixed) : 0
Duplicated bytes error (maybe fixed) : 0
Inconsistency in error sectors : 0

Track 16
Filename : /Users/Nick/Desktop/All Time Low - Nothing Personal (UK Edition) - Flac/16 All Time Low - Dear Maria, Count Me In (Connect Sets Acoustic).flac

Track gain : -7.21 dB
Peak : 0.999969
CRC32 hash (test run) : 5AC7D363
CRC32 hash : 5AC7D363
CRC32 hash (skip zero) : BFB8D4FA
AccurateRip signature : B9309E55
->Track not present in AccurateRip database.
Statistics
Read error : 0
Skipped (treated as error) : 0
Edge jitter error (maybe fixed) : 0
Atom jitter error (maybe fixed) : 0
Drift error (maybe fixed) : 0
Dropped bytes error (maybe fixed) : 0
Duplicated bytes error (maybe fixed) : 0
Inconsistency in error sectors : 0

Track 17
Filename : /Users/Nick/Desktop/All Time Low - Nothing Personal (UK Edition) - Flac/17 All Time Low - Coffee Shop Soundtrack (Acoustic Remix).flac

Track gain : -7.45 dB
Peak : 0.999969
CRC32 hash (test run) : 30AE397A
CRC32 hash : 30AE397A
CRC32 hash (skip zero) : 74135DEE
AccurateRip signature : 1DA5BDB1
->Track not present in AccurateRip database.
Statistics
Read error : 0
Skipped (treated as error) : 0
Edge jitter error (maybe fixed) : 0
Atom jitter error (maybe fixed) : 0
Drift error (maybe fixed) : 0
Dropped bytes error (maybe fixed) : 0
Duplicated bytes error (maybe fixed) : 0
Inconsistency in error sectors : 0

No errors occurred

End of status report
01 - Do You Want Me (Dead) (02:46)
02 - I Feel Like Dancin' (03:01)
03 - Forget About It (02:49)
04 - Guts (03:19)
05 - Time-Bomb (03:30)
06 - Just The Way I'm Not (03:18)
07 - Under A Paper Moon (03:03)
08 - Return The Favor (03:41)
09 - No Idea (04:26)
10 - A Daydream Away (04:13)
11 - That Girl (03:12)
12 - Heroes (03:26)
Bonus Tracks
13 - Get Down On Your Knees And Tell Me You Love Me (03:01)
14 - My Only One (04:23)
15 - Merry Christmas, Kiss My Ass (03:20)
16 - Weightless (Live) (04:01)
Total Time: (55:21)
X Lossless Decoder version 20110528 (134.0)

XLD extraction logfile from 2011-06-08 15:31:40 -0500

All Time Low / Dirty Work

Used drive : MATSHITA DVD-R UJ-898 (revision HC10)

Ripper mode : XLD Secure Ripper
Disable audio cache : OK for the drive with a cache less than 1375KiB
Make use of C2 pointers : NO
Read offset correction : 102
Max retry count : 100
Gap status : Analyzed, Appended

TOC of the extracted CD
Track | Start | Length | Start sector | End sector
---------------------------------------------------------
1 | 00:00:00 | 02:46:28 | 0 | 12477
2 | 02:46:28 | 03:00:45 | 12478 | 26022
3 | 05:46:73 | 02:49:17 | 26023 | 38714
4 | 08:36:15 | 03:18:42 | 38715 | 53606
5 | 11:54:57 | 03:29:70 | 53607 | 69351
6 | 15:24:52 | 03:18:14 | 69352 | 84215
7 | 18:42:66 | 03:02:71 | 84216 | 97936
8 | 21:45:62 | 03:40:73 | 97937 | 114509
9 | 25:26:60 | 04:25:50 | 114510 | 134434
10 | 29:52:35 | 04:13:13 | 134435 | 153422
11 | 34:05:48 | 03:11:72 | 153423 | 167819
12 | 37:17:45 | 03:26:23 | 167820 | 183292
13 | 40:43:68 | 03:01:26 | 183293 | 196893
14 | 43:45:19 | 04:23:31 | 196894 | 216649
15 | 48:08:50 | 03:19:47 | 216650 | 231621
16 | 51:28:22 | 04:01:33 | 231622 | 249729

AccurateRip Summary
Disc not found in AccurateRip DB.

All Tracks
Album gain : -10.65 dB
Peak : 1.000000
Statistics
Read error : 0
Jitter error (maybe fixed) : 0
Retry sector count : 0
Damaged sector count : 0

Track 01
Filename : /Users/KevinsMacBookPro/Music/All Time Low - Dirty Work (2011) - [FLAC]/01 - Do You Want Me (Dead).flac
Pre-gap length : 00:02:00

Track gain : -10.99 dB
Peak : 1.000000
CRC32 hash (test run) : 07B7BBCE
CRC32 hash : 07B7BBCE
CRC32 hash (skip zero) : 2E3569ED
AccurateRip signature : 2081F3AF
->Track not present in AccurateRip database.
Statistics
Read error : 0
Jitter error (maybe fixed) : 0
Retry sector count : 0
Damaged sector count : 0

Track 02
Filename : /Users/KevinsMacBookPro/Music/All Time Low - Dirty Work (2011) - [FLAC]/02 - I Feel Like Dancin'.flac
Pre-gap length : 00:01:32

Track gain : -10.64 dB
Peak : 1.000000
CRC32 hash (test run) : 2122497C
CRC32 hash : 2122497C
CRC32 hash (skip zero) : 6A090BFA
AccurateRip signature : CC166DFE
->Track not present in AccurateRip database.
Statistics
Read error : 0
Jitter error (maybe fixed) : 0
Retry sector count : 0
Damaged sector count : 0

Track 03
Filename : /Users/KevinsMacBookPro/Music/All Time Low - Dirty Work (2011) - [FLAC]/03 - Forget About It.flac

Track gain : -11.23 dB
Peak : 1.000000
CRC32 hash (test run) : EEECD6F8
CRC32 hash : EEECD6F8
CRC32 hash (skip zero) : 371FEDE6
AccurateRip signature : 171582DA
->Track not present in AccurateRip database.
Statistics
Read error : 0
Jitter error (maybe fixed) : 0
Retry sector count : 0
Damaged sector count : 0

Track 04
Filename : /Users/KevinsMacBookPro/Music/All Time Low - Dirty Work (2011) - [FLAC]/04 - Guts.flac

Track gain : -10.99 dB
Peak : 1.000000
CRC32 hash (test run) : E7133A4D
CRC32 hash : E7133A4D
CRC32 hash (skip zero) : 9B7D3777
AccurateRip signature : B1B5ECC3
->Track not present in AccurateRip database.
Statistics
Read error : 0
Jitter error (maybe fixed) : 0
Retry sector count : 0
Damaged sector count : 0

Track 05
Filename : /Users/KevinsMacBookPro/Music/All Time Low - Dirty Work (2011) - [FLAC]/05 - Time-Bomb.flac
Pre-gap length : 00:01:38

Track gain : -10.17 dB
Peak : 1.000000
CRC32 hash (test run) : 81FCD566
CRC32 hash : 81FCD566
CRC32 hash (skip zero) : 4BEC44DB
AccurateRip signature : 9A7720EE
->Track not present in AccurateRip database.
Statistics
Read error : 0
Jitter error (maybe fixed) : 0
Retry sector count : 0
Damaged sector count : 0

Track 06
Filename : /Users/KevinsMacBookPro/Music/All Time Low - Dirty Work (2011) - [FLAC]/06 - Just The Way I'm Not.flac

Track gain : -10.40 dB
Peak : 1.000000
CRC32 hash (test run) : BAADA1DA
CRC32 hash : BAADA1DA
CRC32 hash (skip zero) : EA0B2FDA
AccurateRip signature : 174BDB6F
->Track not present in AccurateRip database.
Statistics
Read error : 0
Jitter error (maybe fixed) : 0
Retry sector count : 0
Damaged sector count : 0

Track 07
Filename : /Users/KevinsMacBookPro/Music/All Time Low - Dirty Work (2011) - [FLAC]/07 - Under A Paper Moon.flac
Pre-gap length : 00:01:31

Track gain : -10.65 dB
Peak : 1.000000
CRC32 hash (test run) : 44A01BBA
CRC32 hash : 44A01BBA
CRC32 hash (skip zero) : 89DCE0DE
AccurateRip signature : 9587C2C7
->Track not present in AccurateRip database.
Statistics
Read error : 0
Jitter error (maybe fixed) : 0
Retry sector count : 0
Damaged sector count : 0

Track 08
Filename : /Users/KevinsMacBookPro/Music/All Time Low - Dirty Work (2011) - [FLAC]/08 - Return The Favor.flac
Pre-gap length : 00:01:62

Track gain : -11.31 dB
Peak : 1.000000
CRC32 hash (test run) : 17AFE5AC
CRC32 hash : 17AFE5AC
CRC32 hash (skip zero) : FF91CF55
AccurateRip signature : CA2C3E6B
->Track not present in AccurateRip database.
Statistics
Read error : 0
Jitter error (maybe fixed) : 0
Retry sector count : 0
Damaged sector count : 0

Track 09
Filename : /Users/KevinsMacBookPro/Music/All Time Low - Dirty Work (2011) - [FLAC]/09 - No Idea.flac
Pre-gap length : 00:00:61

Track gain : -10.12 dB
Peak : 1.000000
CRC32 hash (test run) : 0EC1A08A
CRC32 hash : 0EC1A08A
CRC32 hash (skip zero) : 6AD355FE
AccurateRip signature : B2A53DA3
->Track not present in AccurateRip database.
Statistics
Read error : 0
Jitter error (maybe fixed) : 0
Retry sector count : 0
Damaged sector count : 0

Track 10
Filename : /Users/KevinsMacBookPro/Music/All Time Low - Dirty Work (2011) - [FLAC]/10 - A Daydream Away.flac
Pre-gap length : 00:02:31

Track gain : -9.53 dB
Peak : 1.000000
CRC32 hash (test run) : 22A83AE5
CRC32 hash : 22A83AE5
CRC32 hash (skip zero) : EC239BD7
AccurateRip signature : 63F7DAEC
->Track not present in AccurateRip database.
Statistics
Read error : 0
Jitter error (maybe fixed) : 0
Retry sector count : 0
Damaged sector count : 0

Track 11
Filename : /Users/KevinsMacBookPro/Music/All Time Low - Dirty Work (2011) - [FLAC]/11 - That Girl.flac
Pre-gap length : 00:01:23

Track gain : -10.56 dB
Peak : 1.000000
CRC32 hash (test run) : 3A951A4B
CRC32 hash : 3A951A4B
CRC32 hash (skip zero) : A35C5170
AccurateRip signature : 9EC8E935
->Track not present in AccurateRip database.
Statistics
Read error : 0
Jitter error (maybe fixed) : 0
Retry sector count : 0
Damaged sector count : 0

Track 12
Filename : /Users/KevinsMacBookPro/Music/All Time Low - Dirty Work (2011) - [FLAC]/12 - Heroes.flac

Track gain : -10.36 dB
Peak : 1.000000
CRC32 hash (test run) : AF9F7388
CRC32 hash : AF9F7388
CRC32 hash (skip zero) : AC60B181
AccurateRip signature : 8AEEE9C1
->Track not present in AccurateRip database.
Statistics
Read error : 0
Jitter error (maybe fixed) : 0
Retry sector count : 0
Damaged sector count : 0

Track 13
Filename : /Users/KevinsMacBookPro/Music/All Time Low - Dirty Work (2011) - [FLAC]/13 - Get Down On Your Knees And Tell Me You Love Me.flac
Pre-gap length : 00:00:74

Track gain : -10.82 dB
Peak : 1.000000
CRC32 hash (test run) : 994C8575
CRC32 hash : 994C8575
CRC32 hash (skip zero) : 1F757BF6
AccurateRip signature : E402E271
->Track not present in AccurateRip database.
Statistics
Read error : 0
Jitter error (maybe fixed) : 0
Retry sector count : 0
Damaged sector count : 0

Track 14
Filename : /Users/KevinsMacBookPro/Music/All Time Low - Dirty Work (2011) - [FLAC]/14 - My Only One.flac
Pre-gap length : 00:01:36

Track gain : -10.69 dB
Peak : 1.000000
CRC32 hash (test run) : CCCA747A
CRC32 hash : CCCA747A
CRC32 hash (skip zero) : 14DA8E4F
AccurateRip signature : C5410FF3
->Track not present in AccurateRip database.
Statistics
Read error : 0
Jitter error (maybe fixed) : 0
Retry sector count : 0
Damaged sector count : 0

Track 15
Filename : /Users/KevinsMacBookPro/Music/All Time Low - Dirty Work (2011) - [FLAC]/15 - Merry Christmas, Kiss My Ass.flac
Pre-gap length : 00:01:30

Track gain : -9.85 dB
Peak : 1.000000
CRC32 hash (test run) : 47F72C4D
CRC32 hash : 47F72C4D
CRC32 hash (skip zero) : 84C846EA
AccurateRip signature : 5045B166
->Track not present in AccurateRip database.
Statistics
Read error : 0
Jitter error (maybe fixed) : 0
Retry sector count : 0
Damaged sector count : 0

Track 16
Filename : /Users/KevinsMacBookPro/Music/All Time Low - Dirty Work (2011) - [FLAC]/16 - Weightless (Live).flac
Pre-gap length : 00:00:28

Track gain : -8.99 dB
Peak : 0.977112
CRC32 hash (test run) : E56A6E66
CRC32 hash : E56A6E66
CRC32 hash (skip zero) : 56EA16C8
AccurateRip signature : 133D6803
->Track not present in AccurateRip database.
Statistics
Read error : 0
Jitter error (maybe fixed) : 0
Retry sector count : 0
Damaged sector count : 0

No errors occurred

End of status report
[свернуть]



Трекер:  [ 06-Май-2012 23:11 ]

  

Скачать .torrent

Размер .torrent файла 22 KB


Размер: 1.63 GB
Хэш (hash) релиза: 2b353ec82dadad510eb63831563c07b0c0b50586

Еще никто не оставлял запись к записи скачать торрент All Time Low - Дискография . Будь первым!

!Обратная связь