Скачать через торрент VA - Рок-зграя. Лепшы Рок Айчыны - 2012 бесплатно русская версия torrent активатор

Если у вас наблюдаются проблемы со скриншотами, переходом по ссылками, скачиванием торрентов - проблемы в блокировщике рекламы AdBlock. #хорошегоДня!


Статистика раздачи
Размер:  719 MB   |    Зарегистрирован:  5 лет 5 месяцев   |    .torrent скачан:  23 раза   |   
Раздают:  1  
   
Загрузка...
 
Автор Сообщение

Galfimbul

avatar Galfimbul


VA - Рок-зграя. Лепшы Рок Айчыны

Год: 2012
Страна: Беларусь
Страна-производитель диска: Беларусь
Жанр: Rock
Тип издания: сборник
Издатель (лейбл): ВИГМА
Номер по каталогу: 3421
Наличие сканов в содержимом раздачи: да
Продолжительность: 01:17:38
Тексты: отсутствуют
Кодек: ALAC
Программа-риповщик : foobar2000 + iTunes (lossless)
Битрейт: lossless
Треклист:
01. Karavan - Intro
02. The Toobes - Let's Dance
03. IQ48 - Хвост пісталетам
04. Алексей Шедько - Мне не хватает температуры
05. Pomidor/Off - Адзін
06. Acute - Адзіноцтва
07. Eihelstraat - Переключая волны
08. RockerJoker - Осколки
09. Цукерка - Шаша
10. Remissia - Стой, куда ты?
11. Калачиком рядом - Холода
12. Partyzone - Розум
13. Acute - Шчасце
14. Бульваръ - Всё лучшее детям
15. Алексей Шедько - Только бы не было холодно
16. The Toobes - Crap on the Radio
17. Rel1kt - Рэкі пад ільдом
  
Exact Audio Copy V0.99 prebeta 5 from 4. May 2009

Отчёт EAC об извлечении, выполненном 8. апреля 2012, 16:53

Various / Рок-зграя. Лепшы Рок Айчыны

Дисковод: _NEC DVD_RW ND-3550A Adapter: 0 ID: 0

Режим чтения : ДостоверностьИспользование точного потока : ДаОтключение кэша аудио : ДаИспользование указателей C2 : Нет

Коррекция смещения при чтении : 48Способность читать области Lead-in и Lead-out : НетЗаполнение пропущенных сэмплов тишиной : ДаУдаление блоков с тишиной в начале и конце : НетПри вычислениях CRC использовались нулевые сэмплы : ДаИнтерфейс : Установленный внешний ASPI-интерфейс

Выходной формат : Внутренние WAV-операцииФормат сэмплов : 44.100 Гц; 16 бит; стерео

TOC извлечённого CD

Трек | Старт | Длительность | Начальный сектор | Конечный сектор --------------------------------------------------------------------- 1 | 0:00.00 | 3:30.24 | 0 | 15773 2 | 3:30.24 | 3:04.45 | 15774 | 29618 3 | 6:34.69 | 4:03.52 | 29619 | 47895 4 | 10:38.46 | 4:59.44 | 47896 | 70364 5 | 15:38.15 | 3:48.15 | 70365 | 87479 6 | 19:26.30 | 5:35.28 | 87480 | 112632 7 | 25:01.58 | 4:13.36 | 112633 | 131643 8 | 29:15.19 | 2:40.18 | 131644 | 143661 9 | 31:55.37 | 3:51.42 | 143662 | 161028 10 | 35:47.04 | 4:26.72 | 161029 | 181050 11 | 40:14.01 | 4:00.37 | 181051 | 199087 12 | 44:14.38 | 5:36.48 | 199088 | 224335 13 | 49:51.11 | 5:24.12 | 224336 | 248647 14 | 55:15.23 | 3:24.70 | 248648 | 264017 15 | 58:40.18 | 4:51.00 | 264018 | 285842 16 | 63:31.18 | 3:10.47 | 285843 | 300139 17 | 66:41.65 | 10:56.43 | 300140 | 349382

Характеристики диапазона извлечения и сообщения об ошибках

Выбранный диапазон

Имя файла F:\Music lossless\Various - Рок-зграя. Лепшы Рок Айчыны.wav

Пиковый уровень 100.0 % Качество диапазона 100.0 % CRC теста 81C05B77 CRC копии 81C05B77 Копирование... OK

Ошибок не произошло

AccurateRip: сводка

Трек 1 нет в базе данныхТрек 2 нет в базе данныхТрек 3 нет в базе данныхТрек 4 нет в базе данныхТрек 5 нет в базе данныхТрек 6 нет в базе данныхТрек 7 нет в базе данныхТрек 8 нет в базе данныхТрек 9 нет в базе данныхТрек 10 нет в базе данныхТрек 11 нет в базе данныхТрек 12 нет в базе данныхТрек 13 нет в базе данныхТрек 14 нет в базе данныхТрек 15 нет в базе данныхТрек 16 нет в базе данныхТрек 17 нет в базе данных

Ни одного трека нет в базе AccurateRip

Конец отчёта
  
Started at: воскресенье, 15. 04. 2012. - 10:03.571 file found

1 -===- F:\Music lossless\Рок-зграя. Лепшы Рок Айчыны lossless\Various - Рок-зграя. Лепшы Рок Айчыны.flac Extracted successfully Conclusion: this track is CDDA with probability 100% Tempfile successfully deleted.

Finished at: воскресенье, 15. 04. 2012. - 10:09.34 (operation time: 0:05.37)



Трекер:  [ 06-Май-2012 23:11 ]

  

Скачать .torrent

Размер .torrent файла 15 KB


Размер: 719 MB
Хэш (hash) релиза: 4ed3271790a3049d73f1d90851a50e0acbd00c71

Еще никто не оставлял запись к записи скачать торрент VA - Рок-зграя. Лепшы Рок Айчыны - 2012 . Будь первым!

!Обратная связь