Скачать через торрент Liv Moon - Double Moon - 2009 ALAC, lossless бесплатно русская версия torrent активатор

Если у вас наблюдаются проблемы со скриншотами, переходом по ссылками, скачиванием торрентов - проблемы в блокировщике рекламы AdBlock. #хорошегоДня!


Статистика раздачи
Размер:  362 MB   |    Зарегистрирован:  5 лет 5 месяцев   |    .torrent скачан:  36 раз   |   
Раздают:  1  
   
Загрузка...
 
Автор Сообщение

Galfimbul

avatar Galfimbul




Страна: Japan ll Год: 2009 ll Жанр: Symphonic Gothic Metal ll Продолжительность: 53 min ll Тексты: вшиты частично
Обложки: вшиты ll Кодек: ALAC ll Программа-риповщик : foobar2000 + iTunes (lossless) ll Битрейт: lossless
О группе: Liv Moon – группа из города Токио, Япония, образованная в 2009 году. Основной стиль музыки определяется как Symphonic Metal. Лирическая часть творчества отражает в себе темы трагедии, любви и темной романтики. Исполнение осуществляется на английском и японском языках. Лицом группы является вокалистка Okamoto Akane, выступающая под именем Akane Liv. Она родилась 24 августа 1978 года в шведском городе Гётерборг. Получая образование в музыкальной школе Takarazuka, в 2004 году Akane Liv направляется в Англию, где обучается вокалу. Там же она принимает участие в Beckenham'е, фестивале для молодых вокалистов, и побеждает в номинации "Певица года". После окончания ее обучения и была образована группа Liv Moon. 14 октября 2009 года появляется первый сингл, "Phantom of the Opera", включающий в себя кавер-версию композиции из одноименного мюзикла.
Треклист
[spoiler=(2009) Double Moon]
01. Hisui - Nephrite
02. Getsuka
03. Double Moon
04. The Phantom Of The Opera
05. Interlude - The River Of No Return
06. A Wish
07. Oto Nakisakebi
08. Azayaka Ni...
09. Interlude - Privileged
10. Wild Creatures
11. Escape
12. Time To Say Goodbye (Con Te Partiro)
13. Good Night
14. La Luna
  
Exact Audio Copy V0.99 prebeta 5 from 4. May 2009

EAC extraction logfile from 29. January 2010, 11:33

Liv Moon / Double Moon

Used drive : PIONEER DVD-RW DVR-216 Adapter: 4 ID: 0

Read mode : SecureUtilize accurate stream : YesDefeat audio cache : YesMake use of C2 pointers : No

Read offset correction : 96Overread into Lead-In and Lead-Out : NoFill up missing offset samples with silence : YesDelete leading and trailing silent blocks : NoNull samples used in CRC calculations : YesUsed interface : Native Win32 interface for Win NT & 2000Gap handling : Appended to previous track

Used output format : User Defined EncoderSelected bitrate : 128 kBit/sQuality : HighAdd ID3 tag : NoCommand line compressor : C:\Program Files\Exact Audio Copy\Flac\flac.exeAdditional command line options : -V -8 -T "artist=%a" -T "title=%t" -T "album=%g" -T "date=%y" -T "tracknumber=%n" -T "genre=%m" %s

TOC of the extracted CD

Track | Start | Length | Start sector | End sector --------------------------------------------------------- 1 | 0:00.00 | 5:42.13 | 0 | 25662 2 | 5:42.13 | 4:45.66 | 25663 | 47103 3 | 10:28.04 | 4:22.72 | 47104 | 66825 4 | 14:51.01 | 4:04.59 | 66826 | 85184 5 | 18:55.60 | 0:55.04 | 85185 | 89313 6 | 19:50.64 | 4:11.16 | 89314 | 108154 7 | 24:02.05 | 4:02.47 | 108155 | 126351 8 | 28:04.52 | 4:49.74 | 126352 | 148100 9 | 32:54.51 | 0:59.42 | 148101 | 152567 10 | 33:54.18 | 4:24.62 | 152568 | 172429 11 | 38:19.05 | 4:07.74 | 172430 | 191028 12 | 42:27.04 | 4:21.17 | 191029 | 210620 13 | 46:48.21 | 5:19.34 | 210621 | 234579 14 | 52:07.55 | 1:11.05 | 234580 | 239909

Track 1

Filename D:\eacrips\Liv Moon - 2009 - Double Moon [FLAC]\01 - Hisui - Nephrite.wav

Pre-gap length 0:00:02.00

Peak level 100.0 % Track quality 100.0 % Test CRC 1F5F0C6A Copy CRC 1F5F0C6A Track not present in AccurateRip database Copy OK

Track 2

Filename D:\eacrips\Liv Moon - 2009 - Double Moon [FLAC]\02 - Getsuka.wav

Peak level 100.0 % Track quality 100.0 % Test CRC 6DF233F9 Copy CRC 6DF233F9 Track not present in AccurateRip database Copy OK

Track 3

Filename D:\eacrips\Liv Moon - 2009 - Double Moon [FLAC]\03 - Double Moon.wav

Peak level 100.0 % Track quality 100.0 % Test CRC AFF45D62 Copy CRC AFF45D62 Track not present in AccurateRip database Copy OK

Track 4

Filename D:\eacrips\Liv Moon - 2009 - Double Moon [FLAC]\04 - The Phantom Of The Opera.wav

Peak level 100.0 % Track quality 100.0 % Test CRC C6856BF1 Copy CRC C6856BF1 Track not present in AccurateRip database Copy OK

Track 5

Filename D:\eacrips\Liv Moon - 2009 - Double Moon [FLAC]\05 - Interlude - The River Of No Return.wav

Peak level 46.8 % Track quality 100.0 % Test CRC 8BD914D7 Copy CRC 8BD914D7 Track not present in AccurateRip database Copy OK

Track 6

Filename D:\eacrips\Liv Moon - 2009 - Double Moon [FLAC]\06 - A Wish.wav

Peak level 100.0 % Track quality 100.0 % Test CRC FA364A62 Copy CRC FA364A62 Track not present in AccurateRip database Copy OK

Track 7

Filename D:\eacrips\Liv Moon - 2009 - Double Moon [FLAC]\07 - Oto Nakisakebi.wav

Peak level 100.0 % Track quality 100.0 % Test CRC 6F3D133F Copy CRC 6F3D133F Track not present in AccurateRip database Copy OK

Track 8

Filename D:\eacrips\Liv Moon - 2009 - Double Moon [FLAC]\08 - Azayaka Ni....wav

Peak level 100.0 % Track quality 100.0 % Test CRC A62573FE Copy CRC A62573FE Track not present in AccurateRip database Copy OK

Track 9

Filename D:\eacrips\Liv Moon - 2009 - Double Moon [FLAC]\09 - Interlude - Privileged.wav

Peak level 70.7 % Track quality 100.0 % Test CRC 916EB7B4 Copy CRC 916EB7B4 Track not present in AccurateRip database Copy OK

Track 10

Filename D:\eacrips\Liv Moon - 2009 - Double Moon [FLAC]\10 - Wild Creatures.wav

Peak level 100.0 % Track quality 100.0 % Test CRC E86E21E7 Copy CRC E86E21E7 Track not present in AccurateRip database Copy OK

Track 11

Filename D:\eacrips\Liv Moon - 2009 - Double Moon [FLAC]\11 - Escape.wav

Peak level 100.0 % Track quality 100.0 % Test CRC 44AA2CFB Copy CRC 44AA2CFB Track not present in AccurateRip database Copy OK

Track 12

Filename D:\eacrips\Liv Moon - 2009 - Double Moon [FLAC]\12 - Time To Say Goodbye (Con Te Partiro).wav

Peak level 99.8 % Track quality 100.0 % Test CRC B23621D3 Copy CRC B23621D3 Track not present in AccurateRip database Copy OK

Track 13

Filename D:\eacrips\Liv Moon - 2009 - Double Moon [FLAC]\13 - Good Night.wav

Peak level 99.9 % Track quality 99.9 % Test CRC 639AC3D8 Copy CRC 639AC3D8 Track not present in AccurateRip database Copy OK

Track 14

Filename D:\eacrips\Liv Moon - 2009 - Double Moon [FLAC]\14 - La Luna (Bonus Track).wav

Pre-gap length 0:00:59.44

Peak level 100.0 % Track quality 99.8 % Test CRC A2ACC8DF Copy CRC A2ACC8DF Track not present in AccurateRip database Copy OK

None of the tracks are present in the AccurateRip database

No errors occurred

End of status report


Трекер:  [ 06-Май-2012 23:11 ]

  

Скачать .torrent

Размер .torrent файла 15 KB


Размер: 362 MB
Хэш (hash) релиза: cd3b23f589c8942a152d5f26d764c573eae9fec3

Еще никто не оставлял запись к записи скачать торрент Liv Moon - Double Moon - 2009 ALAC, lossless . Будь первым!

!Обратная связь