Скачать через торрент VA - Песьні свабоды 1,2,3 - 2006-2007 бесплатно русская версия torrent активатор

Если у вас наблюдаются проблемы со скриншотами, переходом по ссылками, скачиванием торрентов - проблемы в блокировщике рекламы AdBlock. #хорошегоДня!


Статистика раздачи
Размер:  1.87 GB   |    Зарегистрирован:  5 лет 5 месяцев   |    .torrent скачан:  46 раз   |   
Раздают:  1  
   
Загрузка...
 
Автор Сообщение

Galfimbul

avatar Galfimbul


VA - Песьні свабоды 1,2,3



Год: 2006-2007
Страна: Беларусь
Страна-производитель диска: Беларусь
Жанр: Rock
Тип издания: сборник
Продолжительность: 03:49:23
Тексты: отсутствуют
Кодек: ALAC
Программа-риповщик: foobar2000 + iTunes (lossless)
Битрейт: lossless
Наличие сканов в содержимом раздачи: да
Треклист:
01. Палац – Сьпей мне
02. Крама – Свабоды мне дай!
03. Таварыш Маўзэр – Брудная вада
04. Жаба ў каляіне – Ужо даволі!
05. Cyrvonym pa Bielamu – Nie Zadaju
06. Кася Камоцкая – Мая краіна
07. ZET – Радзіма-Свабода
08. UltraВожык – Атлянтыда
09. Postscriptum – Вольныя танцы
10. Партызанская школа – Не!
11. ULIS – Радыё Свабода
12. Partyzone+Руся – Маё сэрца
13. Narodny albom – Край, ты мой край
14. Splenetic+Шаман – Менталітэт
15. Рэха – Чэ Гевара (live)
16. Нестандартны варыянт+IQ-48+Лявон Вольскі – Паветраны шар
17. Easy Projekt – Нас не дагоняць
18. Зьмяя – Кідай зброю!
19. Нейра Дзюбель – Беларусь перадусім!
20. Тарпач – Чаго чакаць
21. Тодар – Дзе мой край
22. Мясцовы час – Я жыў
23. Новае Неба – Гэта мы!
  
Exact Audio Copy V0.99 prebeta 5 from 4. May 2009

Отчёт EAC об извлечении, выполненном 8. декабря 2009, 11:02

Розныя / Песьні Свабоды

Дисковод: _NEC DVD_RW ND-3550A Adapter: 0 ID: 0

Режим чтения : ДостоверностьИспользование точного потока : ДаОтключение кэша аудио : ДаИспользование указателей C2 : Нет

Коррекция смещения при чтении : 48Способность читать области Lead-in и Lead-out : НетЗаполнение пропущенных сэмплов тишиной : ДаУдаление блоков с тишиной в начале и конце : НетПри вычислениях CRC использовались нулевые сэмплы : ДаИнтерфейс : Установленный внешний ASPI-интерфейс

Выходной формат : Внутренние WAV-операцииФормат сэмплов : 44.100 Гц; 16 бит; стерео

TOC извлечённого CD

Трек | Старт | Длительность | Начальный сектор | Конечный сектор --------------------------------------------------------------------- 1 | 0:00.00 | 4:07.40 | 0 | 18564 2 | 4:07.40 | 4:13.26 | 18565 | 37565 3 | 8:20.66 | 4:02.50 | 37566 | 55765 4 | 12:23.41 | 2:55.31 | 55766 | 68921 5 | 15:18.72 | 3:51.37 | 68922 | 86283 6 | 19:10.34 | 3:28.11 | 86284 | 101894 7 | 22:38.45 | 3:52.03 | 101895 | 119297 8 | 26:30.48 | 3:29.71 | 119298 | 135043 9 | 30:00.44 | 3:09.72 | 135044 | 149290 10 | 33:10.41 | 2:43.63 | 149291 | 161578 11 | 35:54.29 | 4:20.24 | 161579 | 181102 12 | 40:14.53 | 3:40.17 | 181103 | 197619 13 | 43:54.70 | 2:13.36 | 197620 | 207630 14 | 46:08.31 | 2:55.06 | 207631 | 220761 15 | 49:03.37 | 2:50.15 | 220762 | 233526 16 | 51:53.52 | 4:30.33 | 233527 | 253809 17 | 56:24.10 | 3:53.54 | 253810 | 271338 18 | 60:17.64 | 3:02.30 | 271339 | 285018 19 | 63:20.19 | 3:00.47 | 285019 | 298565 20 | 66:20.66 | 2:43.30 | 298566 | 310820 21 | 69:04.21 | 4:18.38 | 310821 | 330208 22 | 73:22.59 | 3:23.21 | 330209 | 345454 23 | 76:46.05 | 3:01.22 | 345455 | 359051

Характеристики диапазона извлечения и сообщения об ошибках

Выбранный диапазон

Имя файла F:\Розныя - Песьні Свабоды.wav

Пиковый уровень 99.8 % Качество диапазона 99.9 % CRC копии 40315A52 Копирование... OK

Ошибок не произошло

Конец отчёта
01. De Shifer – Час прыйшоў!
02. KROU / Cyrvonym pa Bielym – Kryvavy Sakavik / Zory
03. Без білета – Мая краіна Беларусь
04. Андрэй Плясанаў – Успамін пра будучыню
05. Лявон Вольскі – Ворагам
06. Мясцовы час – Наша ўскраіна
07. УЛІС – Пляц Францыска
08. UltraВожык – Фабрыка сноў
09. Нейра Дзюбель – Край
10. SOK – Менск – горад свабоды!
11. Таварыш Маўзэр – Беларусь будзе вольнай!
12. :B:N: - Цягнік
13. Silver - Колер маёй рэвалюцыі
14. ZET – Белакрылы анёл
15. Новае Неба – Ліст да сястры
16. Імпэратар (CpB) – Уздымайце запальніцы!
17. Тодар – Я нарадзіўся тут
18. Андрэй Хадановіч – Вожык-патрыёт
19. Крама – Будзь разам з намі!
  
Exact Audio Copy V0.99 prebeta 5 from 4. May 2009

Отчёт EAC об извлечении, выполненном 8. декабря 2009, 21:37

Розныя / Песьні свабоды 2

Дисковод: _NEC DVD_RW ND-3550A Adapter: 0 ID: 0

Режим чтения : ДостоверностьИспользование точного потока : ДаОтключение кэша аудио : ДаИспользование указателей C2 : Нет

Коррекция смещения при чтении : 48Способность читать области Lead-in и Lead-out : НетЗаполнение пропущенных сэмплов тишиной : ДаУдаление блоков с тишиной в начале и конце : НетПри вычислениях CRC использовались нулевые сэмплы : ДаИнтерфейс : Установленный внешний ASPI-интерфейс

Выходной формат : Внутренние WAV-операцииФормат сэмплов : 44.100 Гц; 16 бит; стерео

TOC извлечённого CD

Трек | Старт | Длительность | Начальный сектор | Конечный сектор --------------------------------------------------------------------- 1 | 0:00.00 | 3:21.14 | 0 | 15088 2 | 3:21.14 | 4:02.34 | 15089 | 33272 3 | 7:23.48 | 4:02.54 | 33273 | 51476 4 | 11:26.27 | 3:30.38 | 51477 | 67264 5 | 14:56.65 | 3:40.51 | 67265 | 83815 6 | 18:37.41 | 3:41.51 | 83816 | 100441 7 | 22:19.17 | 4:19.27 | 100442 | 119893 8 | 26:38.44 | 3:38.59 | 119894 | 136302 9 | 30:17.28 | 3:52.62 | 136303 | 153764 10 | 34:10.15 | 4:08.22 | 153765 | 172386 11 | 38:18.37 | 3:25.70 | 172387 | 187831 12 | 41:44.32 | 4:56.22 | 187832 | 210053 13 | 46:40.54 | 3:27.67 | 210054 | 225645 14 | 50:08.46 | 3:39.65 | 225646 | 242135 15 | 53:48.36 | 3:48.38 | 242136 | 259273 16 | 57:36.74 | 3:04.40 | 259274 | 273113 17 | 60:41.39 | 2:42.51 | 273114 | 285314 18 | 63:24.15 | 3:22.08 | 285315 | 300472 19 | 66:46.23 | 4:48.30 | 300473 | 322102 20 | 74:06.53 | 3:56.15 | 333503 | 351217

Характеристики диапазона извлечения и сообщения об ошибках

Выбранный диапазон

Имя файла F:\Розныя - Песьні свабоды 2.wav

Пиковый уровень 98.8 % Качество диапазона 99.9 % CRC копии ADBCB95A Копирование... OK

Ошибок не произошло

Конец отчёта
01. Партызанская школа – Свабода
02. :B:N: - Быў час…
03. Чырвоным па Белым – Крывавы сакавік (original version)
04. Чырвоным па Белым – Непераможныя!
05. Чырвоным па Белым – Хутка стану Зьверам!
06. IQ-48 – Схаванае сэрца
07. Крама – Неба – лёс арла
08. Андрэй Хадановіч – Прамова на плошчы
09. Андрэй Хадановіч – Памяці намётаў на пляцы Кастуся Каліноўскага
10. Андрэй Хадановіч – 5 дзён
11. Band A – Рэвалюцыя
12. Віталь Артыст – Плошча Каліноўскага
13. Alter ego – Умберта Эка
14. Вожык (ТО Лопата) – Вечна жывая
15. Рэха – Бацькаўшчына
16. Ростра – У вырай
17. Termin X feat Stillout – Згубіцца
18. Адзінота і Марны Прарок – Музыка новага дня
19. Рахіс – ты ўсё бачыш
20. Яраш Малішэўскі – Калейдаскоп
21. N.R.M. – Гадзючнік
22. P.L.A.N. – У горадзе чужых назваў
23. Сяржук Сокалаў-Воюш – Верш пра маўклівых
24. Аляксандр Кулінковіч - Свабода
  
Exact Audio Copy V0.99 prebeta 5 from 4. May 2009

Отчёт EAC об извлечении, выполненном 8. декабря 2009, 22:20

Розныя / Песьні свабоды 3

Дисковод: _NEC DVD_RW ND-3550A Adapter: 0 ID: 0

Режим чтения : ДостоверностьИспользование точного потока : ДаОтключение кэша аудио : ДаИспользование указателей C2 : Нет

Коррекция смещения при чтении : 48Способность читать области Lead-in и Lead-out : НетЗаполнение пропущенных сэмплов тишиной : ДаУдаление блоков с тишиной в начале и конце : НетПри вычислениях CRC использовались нулевые сэмплы : ДаИнтерфейс : Установленный внешний ASPI-интерфейс

Выходной формат : Внутренние WAV-операцииФормат сэмплов : 44.100 Гц; 16 бит; стерео

TOC извлечённого CD

Трек | Старт | Длительность | Начальный сектор | Конечный сектор --------------------------------------------------------------------- 1 | 0:00.00 | 2:37.21 | 0 | 11795 2 | 2:37.21 | 3:26.59 | 11796 | 27304 3 | 6:04.05 | 4:10.16 | 27305 | 46070 4 | 10:14.21 | 2:46.35 | 46071 | 58555 5 | 13:00.56 | 3:13.64 | 58556 | 73094 6 | 16:14.45 | 4:38.28 | 73095 | 93972 7 | 20:52.73 | 4:34.68 | 93973 | 114590 8 | 25:27.66 | 0:57.69 | 114591 | 118934 9 | 26:25.60 | 2:55.33 | 118935 | 132092 10 | 29:21.18 | 0:46.53 | 132093 | 135595 11 | 30:07.71 | 2:55.43 | 135596 | 148763 12 | 33:03.39 | 3:24.20 | 148764 | 164083 13 | 36:27.59 | 3:19.20 | 164084 | 179028 14 | 39:47.04 | 3:34.56 | 179029 | 195134 15 | 43:21.60 | 3:55.39 | 195135 | 212798 16 | 47:17.24 | 4:20.10 | 212799 | 232308 17 | 51:37.34 | 3:56.59 | 232309 | 250067 18 | 55:34.18 | 2:55.15 | 250068 | 263207 19 | 58:29.33 | 4:34.65 | 263208 | 283822 20 | 63:04.23 | 3:03.52 | 283823 | 297599 21 | 66:08.00 | 4:18.57 | 297600 | 317006 22 | 70:26.57 | 3:16.05 | 317007 | 331711 23 | 73:42.62 | 1:07.15 | 331712 | 336751 24 | 74:50.02 | 3:12.03 | 336752 | 351154

Характеристики диапазона извлечения и сообщения об ошибках

Выбранный диапазон

Имя файла F:\Розныя - Песьні свабоды 3.wav

Пиковый уровень 98.8 % Качество диапазона 99.9 % CRC копии F74005B9 Копирование... OK

Ошибок не произошло

Конец отчёта

  
Started at: вторник, 17. 04. 2012. - 21:14.483 files found

1 -===- F:\Music lossless\Песьні свабоды lossless\Песьні свабоды\Розныя - Песьні Свабоды.flac Extracted successfully Conclusion: this track is CDDA with probability 100% Tempfile successfully deleted.

2 -===- F:\Music lossless\Песьні свабоды lossless\Песьні свабоды 2\Розныя - Песьні свабоды 2.flac Extracted successfully Conclusion: this track is CDDA with probability 100% Tempfile successfully deleted.

3 -===- F:\Music lossless\Песьні свабоды lossless\Песьні свабоды 3\Розныя - Песьні свабоды 3.flac Extracted successfully Conclusion: this track is CDDA with probability 99% Tempfile successfully deleted.

Finished at: вторник, 17. 04. 2012. - 21:32.05 (operation time: 0:17.17)



Трекер:  [ 06-Май-2012 14:51 ]

  

Скачать .torrent

Размер .torrent файла 26 KB


Размер: 1.87 GB
Хэш (hash) релиза: 5ab46016e7fb7fd49cb84fa4b46151bb9c6ef57f

Еще никто не оставлял запись к записи скачать торрент VA - Песьні свабоды 1,2,3 - 2006-2007 . Будь первым!

!Обратная связь