Скачать через торрент The Kooks - Junk of the Heart - 2011 бесплатно русская версия torrent активатор

Если у вас наблюдаются проблемы со скриншотами, переходом по ссылками, скачиванием торрентов - проблемы в блокировщике рекламы AdBlock. #хорошегоДня!


Статистика раздачи
Размер:  237 MB   |    Зарегистрирован:  5 лет 5 месяцев   |    .torrent скачан:  27 раз   |   
Раздают:  1  
   
Загрузка...
 
Автор Сообщение

Galfimbul

avatar Galfimbul


The Kooks - Junk of the Heart


Год: 2011
Страна:
Жанр: Indie Rock
Тип издания: оригинал
Издатель (лейбл): Virgin Records
Продолжительность: 35:50
Тексты: вшиты
Кодек: ALAC
Программа-риповщик : foobar2000 + iTunes (lossless)
Битрейт: lossless

Треклист:

1.) Junk of the Heart (Happy) (3:08)
2.) How'd You Like That (3:15)
3.) Rosie (3:11)
4.) Taking Pictures of You (2:42)
5.) Fuck The World Off (2:53)
6.) Time Above the Earth (1:54)
7.) Runaway (3:01)
8.) Is It Me (3:30)
9.) Killing Me (3:25)
10.) Petulia (2:42)
11.) Eskimo Kiss (3:34)
12.) Mr. Nice Guy (2:40)
  
Exact Audio Copy V1.0 beta 2 from 29. April 2011

EAC extraction logfile from 20. September 2011, 14:47

The Kooks / Junk Of The Heart

Used drive : TSSTcorpCDDVDW SH-S203B Adapter: 3 ID: 1

Read mode : SecureUtilize accurate stream : YesDefeat audio cache : YesMake use of C2 pointers : No

Read offset correction : 6Overread into Lead-In and Lead-Out : NoFill up missing offset samples with silence : YesDelete leading and trailing silent blocks : NoNull samples used in CRC calculations : YesUsed interface : Native Win32 interface for Win NT & 2000Gap handling : Appended to previous track

Used output format : User Defined EncoderSelected bitrate : 128 kBit/sQuality : HighAdd ID3 tag : NoCommand line compressor : C:\Program Files (x86)\Exact Audio Copy\Flac\flac.exeAdditional command line options : -8 -V -T "ARTIST=%artist%" -T "TITLE=%title%" -T "ALBUM=%albumtitle%" -T "DATE=%year%" -T "TRACKNUMBER=%tracknr%" -T "GENRE=%genre%" -T "PERFORMER=%albuminterpret%" -T "COMPOSER=%composer%" %haslyrics%--tag-from-file=LYRICS

TOC of the extracted CD

Track | Start | Length | Start sector | End sector --------------------------------------------------------- 1 | 0:00.00 | 3:08.06 | 0 | 14105 2 | 3:08.06 | 3:14.71 | 14106 | 28726 3 | 6:23.02 | 3:10.72 | 28727 | 43048 4 | 9:33.74 | 2:42.00 | 43049 | 55198 5 | 12:15.74 | 2:52.65 | 55199 | 68163 6 | 15:08.64 | 1:54.05 | 68164 | 76718 7 | 17:02.69 | 3:00.52 | 76719 | 90270 8 | 20:03.46 | 3:30.34 | 90271 | 106054 9 | 23:34.05 | 3:25.02 | 106055 | 121431 10 | 26:59.07 | 2:42.26 | 121432 | 133607 11 | 29:41.33 | 3:34.21 | 133608 | 149678 12 | 33:15.54 | 2:40.20 | 149679 | 161698

Track 1

Filename C:\EAC\The Kooks - Junk Of The Heart (2011) [FLAC] {509990 84692 2 9}\01 - Junk Of The Heart (Happy).wav

Pre-gap length 0:00:02.00

Peak level 100.0 % Extraction speed 1.8 X Track quality 100.0 % Test CRC 8D6CD508 Copy CRC 8D6CD508 Track not present in AccurateRip database Copy OK

Track 2

Filename C:\EAC\The Kooks - Junk Of The Heart (2011) [FLAC] {509990 84692 2 9}\02 - How'd You Like That.wav

Pre-gap length 0:00:02.21

Peak level 99.9 % Extraction speed 2.0 X Track quality 100.0 % Test CRC 238676A6 Copy CRC 238676A6 Track not present in AccurateRip database Copy OK

Track 3

Filename C:\EAC\The Kooks - Junk Of The Heart (2011) [FLAC] {509990 84692 2 9}\03 - Rosie.wav

Pre-gap length 0:00:01.74

Peak level 100.0 % Extraction speed 2.1 X Track quality 100.0 % Test CRC BBC38F85 Copy CRC BBC38F85 Track not present in AccurateRip database Copy OK

Track 4

Filename C:\EAC\The Kooks - Junk Of The Heart (2011) [FLAC] {509990 84692 2 9}\04 - Taking Pictures Of You.wav

Pre-gap length 0:00:02.92

Peak level 100.0 % Extraction speed 1.7 X Track quality 99.9 % Test CRC EF5E8ED9 Copy CRC EF5E8ED9 Track not present in AccurateRip database Copy OK

Track 5

Filename C:\EAC\The Kooks - Junk Of The Heart (2011) [FLAC] {509990 84692 2 9}\05 - Fuck The World Off.wav

Pre-gap length 0:00:03.42

Peak level 100.0 % Extraction speed 2.3 X Track quality 100.0 % Test CRC 171FC082 Copy CRC 171FC082 Track not present in AccurateRip database Copy OK

Track 6

Filename C:\EAC\The Kooks - Junk Of The Heart (2011) [FLAC] {509990 84692 2 9}\06 - Time Above The Earth.wav

Pre-gap length 0:00:00.77

Peak level 98.8 % Extraction speed 2.2 X Track quality 100.0 % Test CRC 110FC484 Copy CRC 110FC484 Track not present in AccurateRip database Copy OK

Track 7

Filename C:\EAC\The Kooks - Junk Of The Heart (2011) [FLAC] {509990 84692 2 9}\07 - Runaway.wav

Pre-gap length 0:00:02.16

Peak level 100.0 % Extraction speed 2.5 X Track quality 100.0 % Test CRC 253B640F Copy CRC 253B640F Track not present in AccurateRip database Copy OK

Track 8

Filename C:\EAC\The Kooks - Junk Of The Heart (2011) [FLAC] {509990 84692 2 9}\08 - Is It Me.wav

Pre-gap length 0:00:02.88

Peak level 97.0 % Extraction speed 2.1 X Track quality 99.9 % Test CRC 5270B4AC Copy CRC 5270B4AC Track not present in AccurateRip database Copy OK

Track 9

Filename C:\EAC\The Kooks - Junk Of The Heart (2011) [FLAC] {509990 84692 2 9}\09 - Killing Me.wav

Pre-gap length 0:00:03.02

Peak level 100.0 % Extraction speed 2.8 X Track quality 100.0 % Test CRC F24AD04F Copy CRC F24AD04F Track not present in AccurateRip database Copy OK

Track 10

Filename C:\EAC\The Kooks - Junk Of The Heart (2011) [FLAC] {509990 84692 2 9}\10 - Petulia.wav

Pre-gap length 0:00:02.08

Peak level 90.8 % Extraction speed 2.0 X Track quality 99.9 % Test CRC 42600537 Copy CRC 42600537 Track not present in AccurateRip database Copy OK

Track 11

Filename C:\EAC\The Kooks - Junk Of The Heart (2011) [FLAC] {509990 84692 2 9}\11 - Eskimo Kiss.wav

Pre-gap length 0:00:02.30

Peak level 100.0 % Extraction speed 3.0 X Track quality 100.0 % Test CRC CC7A44EB Copy CRC CC7A44EB Track not present in AccurateRip database Copy OK

Track 12

Filename C:\EAC\The Kooks - Junk Of The Heart (2011) [FLAC] {509990 84692 2 9}\12 - Mr. Nice Guy.wav

Pre-gap length 0:00:02.40

Peak level 100.0 % Extraction speed 2.9 X Track quality 100.0 % Test CRC C376BB59 Copy CRC C376BB59 Track not present in AccurateRip database Copy OK

None of the tracks are present in the AccurateRip database

No errors occurred

End of status report

==== Log checksum 8007ECFB64CDAAD83E6F769B74304E9AB6F88500830DFC5C20682B274C462E61 ====
  
fooCDtect - foobar2000 + auCDtect, baralgin.

auCDtect: CD records authenticity detector, version 0.8.2Copyright (c) 2004 Oleg Berngardt. All rights reserved.Copyright (c) 2004 Alexander Djourik. All rights reserved.

mode: 0

=========================================== Track: Junk of the Heart (Happy) Quality: CDDA 100%=========================================== Track: How'd You Like That Quality: CDDA 99%=========================================== Track: Rosie Quality: CDDA 100%=========================================== Track: Taking Pictures of You Quality: CDDA 100%=========================================== Track: Fuck the World Off Quality: CDDA 100%=========================================== Track: Time Above the Earth Quality: CDDA 100%=========================================== Track: Runaway Quality: CDDA 100%=========================================== Track: Is It Me Quality: CDDA 99%=========================================== Track: Killing Me Quality: CDDA 100%=========================================== Track: Petulia Quality: MPEG 92%=========================================== Track: Eskimo Kiss Quality: CDDA 100%=========================================== Track: Mr. Nice Guy Quality: CDDA 100%===========================================



Трекер:  [ 06-Май-2012 14:49 ]

  

Скачать .torrent

Размер .torrent файла 19 KB


Размер: 237 MB
Хэш (hash) релиза: 495b0be21e8449c2126293c6dec8c5ed5b6143b9

Еще никто не оставлял запись к записи скачать торрент The Kooks - Junk of the Heart - 2011 . Будь первым!

!Обратная связь