Скачать через торрент Judas Priest - Sad Wings Of Destiny, 1976 бесплатно русская версия torrent активатор

Если у вас наблюдаются проблемы со скриншотами, переходом по ссылками, скачиванием торрентов - проблемы в блокировщике рекламы AdBlock. #хорошегоДня!


Статистика раздачи
Размер:  245 MB   |    Зарегистрирован:  5 лет 5 месяцев   |    .torrent скачан:  26 раз   |   
Раздают:  1  
   
Загрузка...
 
Автор Сообщение

Galfimbul

avatar Galfimbul


Judas Priest - Sad Wings Of Destiny

Год: 1995
Страна: UK
Страна-производитель диска: US
Жанр: Hard Rock / Heavy Metal
Тип издания: ремастер
Издатель (лейбл): Transluxe
Номер по каталогу: 57802-2
Наличие сканов в содержимом раздачи: нет
Продолжительность: 39:10
Тексты: вшиты
Кодек: ALAC
Программа-риповщик : foobar2000 + iTunes (lossless)
Битрейт: lossless

Треклист:
01. Victim Of Changes (7:54)
02. The Ripper (2:47)
03. Dreamer Deceiver (5:56)
04. Deceiver (2:46)
05. Prelude (2:01)
06. Tyrant (4:26)
07. Genocide (5:47)
08. Epitaph (3:16)
09. Island Of Domination (4:26)
  
Exact Audio Copy V0.99 prebeta 5 from 4. May 2009

Отчёт EAC об извлечении, выполненном 2. марта 2010, 20:28

Judas Priest / Sad Wings Of Destiny

Дисковод: HL-DT-STDVDRAM GE20NU10 Adapter: 3 ID: 0

Режим чтения : ДостоверностьИспользование точного потока : ДаОтключение кэша аудио : ДаИспользование указателей C2 : Нет

Коррекция смещения при чтении : 667Способность читать области Lead-in и Lead-out : НетЗаполнение пропущенных сэмплов тишиной : ДаУдаление блоков с тишиной в начале и конце : НетПри вычислениях CRC использовались нулевые сэмплы : ДаИнтерфейс : Встроенный Win32-интерфейс для Win NT/2000

Выходной формат : Пользовательский кодировщикВыбранный битрейт : 1024 kBit/sКачество : ВысокийДобавление ID3-тэга : НетУтилита сжатия : C:\Program Files\wavpack.exeДополнительные параметры : -hm -w "Year=%y" -w "Genre=%m" %s %d

TOC извлечённого CD

Трек | Старт | Длительность | Начальный сектор | Конечный сектор --------------------------------------------------------------------- 1 | 0:00.50 | 7:53.52 | 50 | 35576 2 | 7:54.27 | 2:50.68 | 35577 | 48394 3 | 10:45.20 | 5:53.67 | 48395 | 74936 4 | 16:39.12 | 2:42.58 | 74937 | 87144 5 | 19:21.70 | 2:02.07 | 87145 | 96301 6 | 21:24.02 | 4:28.00 | 96302 | 116401 7 | 25:52.02 | 5:46.45 | 116402 | 142396 8 | 31:38.47 | 3:07.30 | 142397 | 156451 9 | 34:46.02 | 4:24.18 | 156452 | 176269

Характеристики диапазона извлечения и сообщения об ошибках

Выбранный диапазон

Имя файла C:\...\Judas Priest - Sad Wings Of Destiny.wav

Пиковый уровень 94.4 % Качество диапазона 100.0 % CRC теста 367855B7 CRC копии 367855B7 Копирование... OK

Ошибок не произошло

AccurateRip: сводка

Трек 1 точное извлечение (доверие 3) [DBC01B9B]Трек 2 точное извлечение (доверие 3) [5A9C830C]Трек 3 точное извлечение (доверие 3) [2E7D587F]Трек 4 точное извлечение (доверие 3) [986DFD22]Трек 5 точное извлечение (доверие 3) [35890D8C]Трек 6 точное извлечение (доверие 3) [14767EA9]Трек 7 точное извлечение (доверие 3) [8D5CFE27]Трек 8 точное извлечение (доверие 3) [5D38FA0C]Трек 9 точное извлечение (доверие 3) [321B56F2]

Все треки извлечены точно

Конец отчёта
  
-----------------------

DON'T MODIFY THIS FILE

-----------------------

PERFORMER: auCDtect Task Manager, ver. 1.5.1RC6 build 1.5.1.7Copyright (c) 2008-2010 y-soft. All rights reservedhttp://y-soft.org

ANALYZER: auCDtect: CD records authenticity detector, version 0.8.2Copyright (c) 2004 Oleg Berngardt. All rights reserved.Copyright (c) 2004 Alexander Djourik. All rights reserved.

FILE: Judas Priest - Sad Wings Of Destiny.wv Size: 249844606 Hash: 25C1458D8471D5C8A27C7CA729030862 Accuracy: -m0 Conclusion: CDDA 100% Signature: DD14F7F185FDFB05D4296D0BDD3117FF403ADD92


Трекер:  [ 06-Май-2012 14:48 ]

  

Скачать .torrent

Размер .torrent файла 20 KB


Размер: 245 MB
Хэш (hash) релиза: 6a2d5ef2a58f687f2f52606b78514c3beb1bdbf6

Еще никто не оставлял запись к записи скачать торрент Judas Priest - Sad Wings Of Destiny, 1976 . Будь первым!

!Обратная связь