Скачать через торрент Umbra et Imago - Dunkle Energie - 2001 бесплатно русская версия torrent активатор

Если у вас наблюдаются проблемы со скриншотами, переходом по ссылками, скачиванием торрентов - проблемы в блокировщике рекламы AdBlock. #хорошегоДня!


Статистика раздачи
Размер:  416 MB   |    Зарегистрирован:  5 лет 5 месяцев   |    .torrent скачан:  37 раз   |   
Раздают:  1  
   
Загрузка...
 
Автор Сообщение

Galfimbul

avatar Galfimbul


Umbra et Imago - Dunkle Energie

Год: 2001
Страна: Германия
Страна-производитель диска: Россия
Жанр: Gothic Metal
Тип издания: оригинал
Издатель (лейбл): Oblivion (SPV) / Союз
Номер по каталогу: SPV 085-62702 CD
Наличие сканов в содержимом раздачи: нет
Продолжительность: 58:38
Тексты: вшиты
Кодек: ALAC
Программа-риповщик : foobar2000 + iTunes (lossless)
Битрейт: lossless
Источник: собственный диск
Треклист:
01. Intro (Die Offenbarung des Johannes Kap.6, Vers 7,8,10)
02. Feuer und Licht
03. Dunkle Energie
04. Mein Buch
05. She Is Calling
06. Schweigen ist Gold
07. Dionysos
08. Traurig
09. White Wedding
10. TV macht krank
11. Outro (Die Sommerballade von der armen Louise - F.Villon)
12. Gothic Erotic Brainstorm 2001 Mix (Electro-Bonus-Track)
  
Exact Audio Copy V0.99 prebeta 5 from 4. May 2009

Отчёт EAC об извлечении, выполненном 20. апреля 2012, 12:51

Umbra et Imago / Dunkle Energie

Дисковод: Optiarc DVD RW AD-5260S Adapter: 2 ID: 0

Режим чтения : ДостоверностьИспользование точного потока : ДаОтключение кэша аудио : ДаИспользование указателей C2 : Нет

Коррекция смещения при чтении : 48Способность читать области Lead-in и Lead-out : НетЗаполнение пропущенных сэмплов тишиной : ДаУдаление блоков с тишиной в начале и конце : НетПри вычислениях CRC использовались нулевые сэмплы : ДаИнтерфейс : Встроенный Win32-интерфейс для Win NT/2000

Выходной формат : Внутренние WAV-операцииФормат сэмплов : 44.100 Гц; 16 бит; стерео

TOC извлечённого CD

Трек | Старт | Длительность | Начальный сектор | Конечный сектор --------------------------------------------------------------------- 1 | 0:00.00 | 2:11.03 | 0 | 9827 2 | 2:11.03 | 4:41.46 | 9828 | 30948 3 | 6:52.49 | 3:59.38 | 30949 | 48911 4 | 10:52.12 | 5:01.45 | 48912 | 71531 5 | 15:53.57 | 7:12.09 | 71532 | 103940 6 | 23:05.66 | 3:11.29 | 103941 | 118294 7 | 26:17.20 | 6:05.10 | 118295 | 145679 8 | 32:22.30 | 4:49.60 | 145680 | 167414 9 | 37:12.15 | 4:05.10 | 167415 | 185799 10 | 41:17.25 | 5:09.58 | 185800 | 209032 11 | 46:27.08 | 3:25.23 | 209033 | 224430 12 | 49:52.31 | 8:45.27 | 224431 | 263832

Характеристики диапазона извлечения и сообщения об ошибках

Выбранный диапазон

Имя файла F:\TEMP\Umbra et Imago - Dunkle Energie.wav

Пиковый уровень 100.0 % Качество диапазона 100.0 % CRC теста 554F9E89 CRC копии 554F9E89 Копирование... OK

Ошибок не произошло

AccurateRip: сводка

Трек 1 точное извлечение (доверие 2) [299A298F]Трек 2 точное извлечение (доверие 2) [689D2E2C]Трек 3 точное извлечение (доверие 2) [92743A5D]Трек 4 точное извлечение (доверие 2) [0A873D66]Трек 5 точное извлечение (доверие 2) [319CF4C5]Трек 6 точное извлечение (доверие 2) [464F60D6]Трек 7 точное извлечение (доверие 2) [9A2B53BF]Трек 8 точное извлечение (доверие 2) [5F277192]Трек 9 точное извлечение (доверие 2) [0CB39644]Трек 10 точное извлечение (доверие 2) [2F1E7BDE]Трек 11 точное извлечение (доверие 2) [E33A148E]Трек 12 точное извлечение (доверие 2) [D805C658]

Все треки извлечены точно

Конец отчёта
  
AUDIOCHECKER v2.0 beta (build 457) - by Dester - <a href="mailto:opdester@freemail.hu" class="postLink">opdester@freemail.hu</a>~~~~~~~~~~~~~~~~~~~~~~~~~~~~~~~~~~-=== DO NOT EDIT THIS FILE! ===-

Path: ...\TEMP

1 -=- Umbra et Imago - Dunkle Energie.wav -=- CDDA (100%)

209332868


Трекер:  [ 06-Май-2012 14:42 ]

  

Скачать .torrent

Размер .torrent файла 17 KB


Размер: 416 MB
Хэш (hash) релиза: b7a3114221144bdb44a61e7cfbda534efdbb4cdc

Еще никто не оставлял запись к записи скачать торрент Umbra et Imago - Dunkle Energie - 2001 . Будь первым!

!Обратная связь