Скачать через торрент The Hunger Games: Songs from District 12 and Beyond - 2012 бесплатно русская версия torrent активатор

Если у вас наблюдаются проблемы со скриншотами, переходом по ссылками, скачиванием торрентов - проблемы в блокировщике рекламы AdBlock. #хорошегоДня!


Статистика раздачи
Размер:  335 MB   |    Зарегистрирован:  5 лет 5 месяцев   |    .torrent скачан:  35 раз   |   
Раздают:  1  
   
Загрузка...
 
Автор Сообщение

Galfimbul

avatar Galfimbul


The Hunger Games: Songs from District 12 and Beyond

Год: 2012
Страна: US
Жанр: Soundtrack
Тип издания: оригинал
Издатель (лейбл): Universal Republic
Наличие сканов в содержимом раздачи: нет
Продолжительность: 58:10
Тексты: вшиты
Кодек: ALAC
Программа-риповщик : foobar2000 + iTunes (lossless)
Битрейт: lossless
Треклист:
1. Arcade Fire - Abraham's Daughter (3:22)
2. The Secret Sisters - Tomorrow Will Be Kinder (3:26)
3. Neko Case - Nothing To Remember (2:59)
4. Taylor Swift - Safe & Sound (feat. The Civil Wars) (4:00)
5. Kid Cudi - The Ruler And The Killer (4:33)
6. Punch Brothers - Dark Days (3:54)
7. The Decemberists - One Engine (3:02)
8. The Carolina Chocolate Drops - Daughter’s Lament (2:47)
9. The Civil Wars - Kingdom Come (3:43)
10. Glen Hansard - Take The Heartland (2:45)
11. Maroon 5 - Come Away (feat. Rozzi Crane) (5:13)
12. Miranda Lambert - Run Daddy Run (feat. Pistol Annies) (2:45)
13. Jayme Dee - Rules (3:27)
14. Taylor Swift - Eyes Open (4:05)
15. The Low Anthem - Lover Is Childlike (4:16)
16. Birdy - Just A Game (4:01)
  
X Lossless Decoder version 20120226 (139.1)

XLD extraction logfile from 2012-03-31 12:42:23 +0000

Verschiedene Interpreten / The Hunger Games (Songs From District 12 And Beyond) (OST)

Used drive : MATSHITA DVD-R UJ-868 (revision KB19)

Ripper mode : XLD Secure RipperDisable audio cache : OK for the drive with a cache less than 1375KiBMake use of C2 pointers : NORead offset correction : 102Max retry count : 20Gap status : Analyzed, Appended

TOC of the extracted CD Track | Start | Length | Start sector | End sector --------------------------------------------------------- 1 | 00:00:00 | 03:22:22 | 0 | 15171 2 | 03:22:22 | 03:25:53 | 15172 | 30599 3 | 06:48:00 | 02:58:48 | 30600 | 43997 4 | 09:46:48 | 04:00:05 | 43998 | 62002 5 | 13:46:53 | 04:33:28 | 62003 | 82505 6 | 18:20:06 | 03:53:64 | 82506 | 100044 7 | 22:13:70 | 03:01:39 | 100045 | 113658 8 | 25:15:34 | 02:46:52 | 113659 | 126160 9 | 28:02:11 | 03:42:42 | 126161 | 142852 10 | 31:44:53 | 02:45:27 | 142853 | 155254 11 | 34:30:05 | 05:13:23 | 155255 | 178752 12 | 39:43:28 | 02:45:32 | 178753 | 191159 13 | 42:28:60 | 03:27:28 | 191160 | 206712 14 | 45:56:13 | 04:04:44 | 206713 | 225056 15 | 50:00:57 | 04:15:54 | 225057 | 244235 16 | 54:16:36 | 04:01:20 | 244236 | 262330

AccurateRip Summary Disc not found in AccurateRip DB.

All Tracks Album gain : -6.03 dB Peak : 0.985840 Statistics Read error : 0 Jitter error (maybe fixed) : 0 Retry sector count : 0 Damaged sector count : 0

Track 01 Filename : /Users/royostrowski/Desktop/01 - Abraham's Daughter.flac Pre-gap length : 00:02:00

Track gain : -5.09 dB Peak : 0.985840 CRC32 hash (test run) : DD504F62 CRC32 hash : DD504F62 CRC32 hash (skip zero) : EC2D8719 AccurateRip signature : D3519818 ->Track not present in AccurateRip database. Statistics Read error : 0 Jitter error (maybe fixed) : 0 Retry sector count : 0 Damaged sector count : 0

Track 02 Filename : /Users/royostrowski/Desktop/02 - Tomorrow Will Be Kinder.flac

Track gain : -2.23 dB Peak : 0.851227 CRC32 hash (test run) : 54B41DF2 CRC32 hash : 54B41DF2 CRC32 hash (skip zero) : 78687535 AccurateRip signature : 11E9EA9B ->Track not present in AccurateRip database. Statistics Read error : 0 Jitter error (maybe fixed) : 0 Retry sector count : 0 Damaged sector count : 0

Track 03 Filename : /Users/royostrowski/Desktop/03 - Nothing To Remember.flac

Track gain : -5.30 dB Peak : 0.955566 CRC32 hash (test run) : 0D8602D9 CRC32 hash : 0D8602D9 CRC32 hash (skip zero) : 58BE2B0C AccurateRip signature : 3DC6DDC3 ->Track not present in AccurateRip database. Statistics Read error : 0 Jitter error (maybe fixed) : 0 Retry sector count : 0 Damaged sector count : 0

Track 04 Filename : /Users/royostrowski/Desktop/04 - Safe & Sound.flac

Track gain : -6.54 dB Peak : 0.946472 CRC32 hash (test run) : D791C300 CRC32 hash : D791C300 CRC32 hash (skip zero) : 8E3649E8 AccurateRip signature : 15F109F2 ->Track not present in AccurateRip database. Statistics Read error : 0 Jitter error (maybe fixed) : 0 Retry sector count : 0 Damaged sector count : 0

Track 05 Filename : /Users/royostrowski/Desktop/05 - The Rule And The Killer.flac

Track gain : -4.37 dB Peak : 0.977753 CRC32 hash (test run) : 9BDB610E CRC32 hash : 9BDB610E CRC32 hash (skip zero) : F5DDFD39 AccurateRip signature : 77DBD77C ->Track not present in AccurateRip database. Statistics Read error : 0 Jitter error (maybe fixed) : 0 Retry sector count : 0 Damaged sector count : 0

Track 06 Filename : /Users/royostrowski/Desktop/06 - Dark Days.flac

Track gain : -3.04 dB Peak : 0.902313 CRC32 hash (test run) : E29E1102 CRC32 hash : E29E1102 CRC32 hash (skip zero) : 0E05E916 AccurateRip signature : EA486ACA ->Track not present in AccurateRip database. Statistics Read error : 0 Jitter error (maybe fixed) : 0 Retry sector count : 0 Damaged sector count : 0

Track 07 Filename : /Users/royostrowski/Desktop/07 - One Engine.flac

Track gain : -6.57 dB Peak : 0.903595 CRC32 hash (test run) : CD69BC89 CRC32 hash : CD69BC89 CRC32 hash (skip zero) : 84D7F93C AccurateRip signature : 8E452994 ->Track not present in AccurateRip database. Statistics Read error : 0 Jitter error (maybe fixed) : 0 Retry sector count : 0 Damaged sector count : 0

Track 08 Filename : /Users/royostrowski/Desktop/08 - Daughter's Lament.flac

Track gain : -2.60 dB Peak : 0.733643 CRC32 hash (test run) : 74047699 CRC32 hash : 74047699 CRC32 hash (skip zero) : 8DF0441D AccurateRip signature : 9F8B53E6 ->Track not present in AccurateRip database. Statistics Read error : 0 Jitter error (maybe fixed) : 0 Retry sector count : 0 Damaged sector count : 0

Track 09 Filename : /Users/royostrowski/Desktop/09 - Kingdom Come.flac

Track gain : -6.84 dB Peak : 0.981598 CRC32 hash (test run) : D28E2B2A CRC32 hash : D28E2B2A CRC32 hash (skip zero) : 5A6F241A AccurateRip signature : 1AA8D3BB ->Track not present in AccurateRip database. Statistics Read error : 0 Jitter error (maybe fixed) : 0 Retry sector count : 0 Damaged sector count : 0

Track 10 Filename : /Users/royostrowski/Desktop/10 - Take The Heartland.flac

Track gain : -7.78 dB Peak : 0.979187 CRC32 hash (test run) : 929F7ECF CRC32 hash : 929F7ECF CRC32 hash (skip zero) : 8525766F AccurateRip signature : EA863378 ->Track not present in AccurateRip database. Statistics Read error : 0 Jitter error (maybe fixed) : 0 Retry sector count : 0 Damaged sector count : 0

Track 11 Filename : /Users/royostrowski/Desktop/11 - Come Away To The Water.flac

Track gain : -4.46 dB Peak : 0.967682 CRC32 hash (test run) : F08E8A9B CRC32 hash : F08E8A9B CRC32 hash (skip zero) : A6F9FA5F AccurateRip signature : B816FC9B ->Track not present in AccurateRip database. Statistics Read error : 0 Jitter error (maybe fixed) : 0 Retry sector count : 0 Damaged sector count : 0

Track 12 Filename : /Users/royostrowski/Desktop/12 - Run Daddy Run.flac

Track gain : -6.14 dB Peak : 0.946991 CRC32 hash (test run) : 727E2B66 CRC32 hash : 727E2B66 CRC32 hash (skip zero) : 8E8D811E AccurateRip signature : 1C55681D ->Track not present in AccurateRip database. Statistics Read error : 0 Jitter error (maybe fixed) : 0 Retry sector count : 0 Damaged sector count : 0

Track 13 Filename : /Users/royostrowski/Desktop/13 - Rules.flac

Track gain : -5.00 dB Peak : 0.945404 CRC32 hash (test run) : 8768BB4C CRC32 hash : 8768BB4C CRC32 hash (skip zero) : 7AAA3C03 AccurateRip signature : 99590016 ->Track not present in AccurateRip database. Statistics Read error : 0 Jitter error (maybe fixed) : 0 Retry sector count : 0 Damaged sector count : 0

Track 14 Filename : /Users/royostrowski/Desktop/14 - Eyes Open.flac

Track gain : -7.13 dB Peak : 0.960968 CRC32 hash (test run) : 8F918BC9 CRC32 hash : 8F918BC9 CRC32 hash (skip zero) : 412A8609 AccurateRip signature : 6DADE3F5 ->Track not present in AccurateRip database. Statistics Read error : 0 Jitter error (maybe fixed) : 0 Retry sector count : 0 Damaged sector count : 0

Track 15 Filename : /Users/royostrowski/Desktop/15 - Lover Is Childlike.flac

Track gain : -3.83 dB Peak : 0.924286 CRC32 hash (test run) : 4CDE4E62 CRC32 hash : 4CDE4E62 CRC32 hash (skip zero) : D8B3F78B AccurateRip signature : FD2D5346 ->Track not present in AccurateRip database. Statistics Read error : 0 Jitter error (maybe fixed) : 0 Retry sector count : 0 Damaged sector count : 0

Track 16 Filename : /Users/royostrowski/Desktop/16 - Just A Game.flac

Track gain : -6.07 dB Peak : 0.978668 CRC32 hash (test run) : AA324A03 CRC32 hash : AA324A03 CRC32 hash (skip zero) : 2711C644 AccurateRip signature : EB56D739 ->Track not present in AccurateRip database. Statistics Read error : 0 Jitter error (maybe fixed) : 0 Retry sector count : 0 Damaged sector count : 0

No errors occurred

End of status report


Трекер:  [ 06-Май-2012 14:35 ]

  

Скачать .torrent

Размер .torrent файла 14 KB


Размер: 335 MB
Хэш (hash) релиза: ab9f0f032c26165bfa15c18282e0f4bab2f6826e

Еще никто не оставлял запись к записи скачать торрент The Hunger Games: Songs from District 12 and Beyond - 2012 . Будь первым!

!Обратная связь