Скачать через торрент M. Ward - A Wasteland Companion - 2012 ALAC, lossless бесплатно русская версия torrent активатор

Если у вас наблюдаются проблемы со скриншотами, переходом по ссылками, скачиванием торрентов - проблемы в блокировщике рекламы AdBlock. #хорошегоДня!


Статистика раздачи
Размер:  223 MB   |    Зарегистрирован:  5 лет 5 месяцев   |    .torrent скачан:  40 раз   |   
Раздают:  1  
   
Загрузка...
 
Автор Сообщение

Galfimbul

avatar Galfimbul


M. Ward - A Wasteland Companion

Год: 2012
Страна: US
Жанр: Indie Rock
Продолжительность: 36:42
Тексты: отсутствуют
Кодек: ALAC
Программа-риповщик : foobar2000 + iTunes (lossless)
Битрейт: lossless
Треклист:
01. Clean Slate
02. Primitive Girl
03. Me And My Shadow
04. Sweetheart
05. I Get Ideas
06. The First Time I Ran Away
07. A Wasteland Companion
08. Watch The Show
09. There’s A Key
10. Crawl After You
11. Wild Goose
12. Pure Joy
  
X Lossless Decoder version 20120407 (140.0)

XLD extraction logfile from 2012-04-09 19:11:11 +0000

M. Ward / A Wasteland Companion

Used drive : PLEXTOR BD-ROM PX-B120U (revision 1.06)

Ripper mode : XLD Secure RipperDisable audio cache : OK for the drive with a cache less than 1375KiBMake use of C2 pointers : NORead offset correction : 696Max retry count : 20Gap status : Analyzed, Appended

TOC of the extracted CD Track | Start | Length | Start sector | End sector --------------------------------------------------------- 1 | 00:00:00 | 02:51:24 | 0 | 12848 2 | 02:51:24 | 03:10:06 | 12849 | 27104 3 | 06:01:30 | 02:36:30 | 27105 | 38834 4 | 08:37:60 | 03:31:18 | 38835 | 54677 5 | 12:09:03 | 02:39:08 | 54678 | 66610 6 | 14:48:11 | 03:17:71 | 66611 | 81456 7 | 18:06:07 | 02:54:60 | 81457 | 94566 8 | 21:00:67 | 03:40:38 | 94567 | 111104 9 | 24:41:30 | 02:52:37 | 111105 | 124041 10 | 27:33:67 | 03:40:69 | 124042 | 140610 11 | 31:14:61 | 02:35:51 | 140611 | 152286 12 | 33:50:37 | 02:57:36 | 152287 | 165597

AccurateRip Summary Disc not found in AccurateRip DB.

All Tracks Album gain : -8.20 dB Peak : 1.000000 Statistics Read error : 0 Jitter error (maybe fixed) : 0 Retry sector count : 0 Damaged sector count : 0

Track 01 Filename : /Users/LmcG/Desktop/TRANSCODE/M. Ward - A Wasteland Companion (2012)/01 - Clean Slate.m4a /Users/LmcG/Desktop/TRANSCODE/M. Ward - A Wasteland Companion (2012)/01 - Clean Slate.flac Pre-gap length : 00:02:00

Track gain : -6.55 dB Peak : 0.988708 CRC32 hash (test run) : 6420703D CRC32 hash : 6420703D CRC32 hash (skip zero) : 8863F1DC AccurateRip signature : 7E6655E3 ->Track not present in AccurateRip database. Statistics Read error : 0 Jitter error (maybe fixed) : 0 Retry sector count : 0 Damaged sector count : 0

Track 02 Filename : /Users/LmcG/Desktop/TRANSCODE/M. Ward - A Wasteland Companion (2012)/02 - Primitive Girl.m4a /Users/LmcG/Desktop/TRANSCODE/M. Ward - A Wasteland Companion (2012)/02 - Primitive Girl.flac

Track gain : -7.88 dB Peak : 1.000000 CRC32 hash (test run) : 66CC6515 CRC32 hash : 66CC6515 CRC32 hash (skip zero) : E0A06203 AccurateRip signature : 3563F71B ->Track not present in AccurateRip database. Statistics Read error : 0 Jitter error (maybe fixed) : 0 Retry sector count : 0 Damaged sector count : 0

Track 03 Filename : /Users/LmcG/Desktop/TRANSCODE/M. Ward - A Wasteland Companion (2012)/03 - Me And My Shadow.m4a /Users/LmcG/Desktop/TRANSCODE/M. Ward - A Wasteland Companion (2012)/03 - Me And My Shadow.flac Pre-gap length : 00:54:01

Track gain : -9.06 dB Peak : 0.993347 CRC32 hash (test run) : 4BB44451 CRC32 hash : 4BB44451 CRC32 hash (skip zero) : 0F9417F9 AccurateRip signature : 2863F9CB ->Track not present in AccurateRip database. Statistics Read error : 0 Jitter error (maybe fixed) : 0 Retry sector count : 0 Damaged sector count : 0

Track 04 Filename : /Users/LmcG/Desktop/TRANSCODE/M. Ward - A Wasteland Companion (2012)/04 - Sweetheart.m4a /Users/LmcG/Desktop/TRANSCODE/M. Ward - A Wasteland Companion (2012)/04 - Sweetheart.flac

Track gain : -9.40 dB Peak : 0.996338 CRC32 hash (test run) : 62721EE0 CRC32 hash : 62721EE0 CRC32 hash (skip zero) : 739EDD56 AccurateRip signature : C26D6E4F ->Track not present in AccurateRip database. Statistics Read error : 0 Jitter error (maybe fixed) : 0 Retry sector count : 0 Damaged sector count : 0

Track 05 Filename : /Users/LmcG/Desktop/TRANSCODE/M. Ward - A Wasteland Companion (2012)/05 - I Get Ideas.m4a /Users/LmcG/Desktop/TRANSCODE/M. Ward - A Wasteland Companion (2012)/05 - I Get Ideas.flac Pre-gap length : 00:01:32

Track gain : -9.59 dB Peak : 1.000000 CRC32 hash (test run) : 7FF669D9 CRC32 hash : 7FF669D9 CRC32 hash (skip zero) : 78A30A63 AccurateRip signature : 8D139588 ->Track not present in AccurateRip database. Statistics Read error : 0 Jitter error (maybe fixed) : 0 Retry sector count : 0 Damaged sector count : 0

Track 06 Filename : /Users/LmcG/Desktop/TRANSCODE/M. Ward - A Wasteland Companion (2012)/06 - The First Time I Ran Away.m4a /Users/LmcG/Desktop/TRANSCODE/M. Ward - A Wasteland Companion (2012)/06 - The First Time I Ran Away.flac

Track gain : -6.08 dB Peak : 0.988831 CRC32 hash (test run) : 38DB5FCA CRC32 hash : 38DB5FCA CRC32 hash (skip zero) : E145A1D9 AccurateRip signature : 0A77F6AD ->Track not present in AccurateRip database. Statistics Read error : 0 Jitter error (maybe fixed) : 0 Retry sector count : 0 Damaged sector count : 0

Track 07 Filename : /Users/LmcG/Desktop/TRANSCODE/M. Ward - A Wasteland Companion (2012)/07 - A Wasteland Companion.m4a /Users/LmcG/Desktop/TRANSCODE/M. Ward - A Wasteland Companion (2012)/07 - A Wasteland Companion.flac

Track gain : -4.24 dB Peak : 0.989838 CRC32 hash (test run) : 79AD32A2 CRC32 hash : 79AD32A2 CRC32 hash (skip zero) : A7BB6C22 AccurateRip signature : 96827FC5 ->Track not present in AccurateRip database. Statistics Read error : 0 Jitter error (maybe fixed) : 0 Retry sector count : 0 Damaged sector count : 0

Track 08 Filename : /Users/LmcG/Desktop/TRANSCODE/M. Ward - A Wasteland Companion (2012)/08 - Watch The Show.m4a /Users/LmcG/Desktop/TRANSCODE/M. Ward - A Wasteland Companion (2012)/08 - Watch The Show.flac

Track gain : -8.39 dB Peak : 0.995178 CRC32 hash (test run) : 054B83B9 CRC32 hash : 054B83B9 CRC32 hash (skip zero) : E221B9E7 AccurateRip signature : 5E35BBC9 ->Track not present in AccurateRip database. Statistics Read error : 0 Jitter error (maybe fixed) : 0 Retry sector count : 0 Damaged sector count : 0

Track 09 Filename : /Users/LmcG/Desktop/TRANSCODE/M. Ward - A Wasteland Companion (2012)/09 - There's A Key.m4a /Users/LmcG/Desktop/TRANSCODE/M. Ward - A Wasteland Companion (2012)/09 - There's A Key.flac

Track gain : -6.38 dB Peak : 0.993408 CRC32 hash (test run) : D9945092 CRC32 hash : D9945092 CRC32 hash (skip zero) : 9936E9F8 AccurateRip signature : 1F78580D ->Track not present in AccurateRip database. Statistics Read error : 0 Jitter error (maybe fixed) : 0 Retry sector count : 0 Damaged sector count : 0

Track 10 Filename : /Users/LmcG/Desktop/TRANSCODE/M. Ward - A Wasteland Companion (2012)/10 - Crawl After You.m4a /Users/LmcG/Desktop/TRANSCODE/M. Ward - A Wasteland Companion (2012)/10 - Crawl After You.flac

Track gain : -7.82 dB Peak : 0.989685 CRC32 hash (test run) : B5CA8D77 CRC32 hash : B5CA8D77 CRC32 hash (skip zero) : 17474F81 AccurateRip signature : F203CB14 ->Track not present in AccurateRip database. Statistics Read error : 0 Jitter error (maybe fixed) : 0 Retry sector count : 0 Damaged sector count : 0

Track 11 Filename : /Users/LmcG/Desktop/TRANSCODE/M. Ward - A Wasteland Companion (2012)/11 - Wild Goose.m4a /Users/LmcG/Desktop/TRANSCODE/M. Ward - A Wasteland Companion (2012)/11 - Wild Goose.flac Pre-gap length : 00:01:07

Track gain : -5.30 dB Peak : 0.988312 CRC32 hash (test run) : 18B9FCA6 CRC32 hash : 18B9FCA6 CRC32 hash (skip zero) : C313043E AccurateRip signature : C92FF963 ->Track not present in AccurateRip database. Statistics Read error : 0 Jitter error (maybe fixed) : 0 Retry sector count : 0 Damaged sector count : 0

Track 12 Filename : /Users/LmcG/Desktop/TRANSCODE/M. Ward - A Wasteland Companion (2012)/12 - Pure Joy.m4a /Users/LmcG/Desktop/TRANSCODE/M. Ward - A Wasteland Companion (2012)/12 - Pure Joy.flac Pre-gap length : 00:00:06

Track gain : -6.58 dB Peak : 0.989624 CRC32 hash (test run) : B054F65A CRC32 hash : B054F65A CRC32 hash (skip zero) : B4567E41 AccurateRip signature : E3DA6CCF ->Track not present in AccurateRip database. Statistics Read error : 0 Jitter error (maybe fixed) : 0 Retry sector count : 0 Damaged sector count : 0

No errors occurred

End of status report


Трекер:  [ 06-Май-2012 14:35 ]

  

Скачать .torrent

Размер .torrent файла 18 KB


Размер: 223 MB
Хэш (hash) релиза: 58fb51a55a6d2a5f7919441086acb94c482533fb

Еще никто не оставлял запись к записи скачать торрент M. Ward - A Wasteland Companion - 2012 ALAC, lossless . Будь первым!

!Обратная связь