Скачать через торрент Unisonic - Дискография бесплатно русская версия torrent активатор

Если у вас наблюдаются проблемы со скриншотами, переходом по ссылками, скачиванием торрентов - проблемы в блокировщике рекламы AdBlock. #хорошегоДня!


Статистика раздачи
Размер:  568 MB   |    Зарегистрирован:  5 лет 5 месяцев   |    .torrent скачан:  43 раза   |   
Раздают:  1  
   
Загрузка...
 
Автор Сообщение

Galfimbul

avatar Galfimbul


Unisonic - Дискография, ALAC



Год: 2012
Страна: Germany
Жанр: Hard Rock / Power Metal
Издатель (лейбл): earMUSIC/EDEL
Тексты: вшиты
Обложки: интегрированы
Кодек: ALAC
Тип рипа: tracks
Программа-риповщик: foobar2000 + iTunes
Битрейт: lossless

Состав дискографии:
Дебютный мини-альбом группы

01. Unisonic
02. My Sanctuary
03. Souls Alive (Demo Version)
04. I Want Out (Live Version)
Exact Audio Copy V1.0 beta 3 from 29. August 2011

EAC extraction logfile from 13. April 2012, 20:06

Unisonic / Unisonic

Used drive : SlimtypeDVD A DS8A5SH Adapter: 0 ID: 1

Read mode : Secure
Utilize accurate stream : Yes
Defeat audio cache : Yes
Make use of C2 pointers : No

Read offset correction : 6
Overread into Lead-In and Lead-Out : No
Fill up missing offset samples with silence : Yes
Delete leading and trailing silent blocks : No
Null samples used in CRC calculations : Yes
Used interface : Native Win32 interface for Win NT & 2000

Used output format : User Defined Encoder
Selected bitrate : 320 kBit/s
Quality : High
Add ID3 tag : No
Command line compressor : C:\Program Files (x86)\Exact Audio Copy\Flac\flac.exe
Additional command line options : -V -8 -T "Date=%year%" -T "Genre=%genre%" %source%

TOC of the extracted CD

Track | Start | Length | Start sector | End sector
---------------------------------------------------------
1 | 0:00.00 | 3:25.65 | 0 | 15439
2 | 3:25.65 | 5:13.71 | 15440 | 38985
3 | 8:39.61 | 4:30.34 | 38986 | 59269
4 | 13:10.20 | 4:56.25 | 59270 | 81494
5 | 18:06.45 | 4:16.52 | 81495 | 100746
6 | 22:23.22 | 3:44.56 | 100747 | 117602
7 | 26:08.03 | 4:03.32 | 117603 | 135859
8 | 30:11.35 | 4:38.69 | 135860 | 156778
9 | 34:50.29 | 4:16.04 | 156779 | 175982
10 | 39:06.33 | 4:07.22 | 175983 | 194529
11 | 43:13.55 | 4:43.11 | 194530 | 215765
12 | 47:56.66 | 6:13.31 | 215766 | 243771

Range status and errors

Selected range

Filename D:\My Music\Unisonic - 2012 Unisonic (Japanese Edition)\Unisonic - Unisonic.wav

Peak level 97.7 %
Extraction speed 4.3 X
Range quality 99.9 %
Test CRC 3BE645B0
Copy CRC 3BE645B0
Copy OK

No errors occurred

AccurateRip summary

Track 1 not present in database
Track 2 not present in database
Track 3 not present in database
Track 4 not present in database
Track 5 not present in database
Track 6 not present in database
Track 7 not present in database
Track 8 not present in database
Track 9 not present in database
Track 10 not present in database
Track 11 not present in database
Track 12 not present in database

None of the tracks are present in the AccurateRip database

End of status report

==== Log checksum 36D4F9C77226CDA74A331F7956C0A4B34873A180DBF74B3D6164260396375101 ====
Дебютный полноценный альбом группы

01. Unisonic
02. Souls Alive
03. Never Too Late
04. I've Tried
05. Star Rider
06. Never Change Me
07. Over The Rainbow (Bonus Track)
08. Renegade
09. My Sanctuary
10. King For A Day
11. We Rise
12. No One Ever Sees Me
Exact Audio Copy V0.99 prebeta 5 from 4. May 2009

EAC extraction logfile from 6. April 2012, 1:00

Unisonic / Unisonic

Used drive : ATAPI iHAS624 B Adapter: 2 ID: 0

Read mode : Secure
Utilize accurate stream : Yes
Defeat audio cache : Yes
Make use of C2 pointers : No

Read offset correction : 6
Overread into Lead-In and Lead-Out : No
Fill up missing offset samples with silence : Yes
Delete leading and trailing silent blocks : No
Null samples used in CRC calculations : Yes
Used interface : Installed external ASPI interface

Used output format : User Defined Encoder
Selected bitrate : 40 kBit/s
Quality : High
Add ID3 tag : No
Command line compressor : C:\Program Files\Exact Audio Copy\Flac\flac.exe
Additional command line options : -6 -V %s

TOC of the extracted CD

Track | Start | Length | Start sector | End sector
---------------------------------------------------------
1 | 0:00.00 | 3:25.65 | 0 | 15439
2 | 3:25.65 | 5:13.71 | 15440 | 38985
3 | 8:39.61 | 4:30.34 | 38986 | 59269
4 | 13:10.20 | 4:56.25 | 59270 | 81494
5 | 18:06.45 | 4:16.52 | 81495 | 100746
6 | 22:23.22 | 3:45.46 | 100747 | 117667
7 | 26:08.68 | 5:16.63 | 117668 | 141430
8 | 31:25.56 | 4:38.70 | 141431 | 162350
9 | 36:04.51 | 4:16.03 | 162351 | 181553
10 | 40:20.54 | 4:07.22 | 181554 | 200100
11 | 44:28.01 | 4:43.11 | 200101 | 221336
12 | 49:11.12 | 6:13.31 | 221337 | 249342

Range status and errors

Selected range

Filename D:\Download\Unisonic - Unisonic.wav

Peak level 97.7 %
Range quality 100.0 %
Copy CRC 2F016ACD
Copy OK

No errors occurred

AccurateRip summary

Track 1 not present in database
Track 2 not present in database
Track 3 not present in database
Track 4 not present in database
Track 5 not present in database
Track 6 not present in database
Track 7 not present in database
Track 8 not present in database
Track 9 not present in database
Track 10 not present in database
Track 11 not present in database
Track 12 not present in database

None of the tracks are present in the AccurateRip database

End of status report
Дополнительная информация:
Michael Kiske - Vocals (Kiske / Somerville, Avantasia (live), ex-Ill Prophecy, ex-Helloween, ex-Gamma Ray (live))
Kai Hansen - Guitars (Gamma Ray, Avantasia (live), ex-Helloween, ex-Iron Savior)
Mandy Meyer - Guitars (ex-Krokus)
Dennis Ward - Bass (D.C. Cooper, Missa Mercuria, Pink Cream 69, Wicked Sensation, ex-Bob Catley, ex-Dezperadoz)
Kosta Zafiriou - Drums (D.C. Cooper, ex-Pink Cream 69, ex-Kymera)


Трекер:  [ 06-Май-2012 14:37 ]

  

Скачать .torrent

Размер .torrent файла 13 KB


Размер: 568 MB
Хэш (hash) релиза: 525f8dc9f7a7f7e06e64de64731628371eb7d41b

Еще никто не оставлял запись к записи скачать торрент Unisonic - Дискография . Будь первым!

!Обратная связь