Скачать через торрент Яваровы людзі - Вырай - 2012 бесплатно русская версия torrent активатор

Если у вас наблюдаются проблемы со скриншотами, переходом по ссылками, скачиванием торрентов - проблемы в блокировщике рекламы AdBlock. #хорошегоДня!


Статистика раздачи
Размер:  262 MB   |    Зарегистрирован:  5 лет 5 месяцев   |    .torrent скачан:  38 раз   |   
Раздают:  1  
   
Загрузка...
 
Автор Сообщение

Galfimbul

avatar Galfimbul


Яваровы людзі - Вырай

Год: 2012
Страна: Беларусь
Страна-производитель диска: Беларусь
Жанр: Folk
Тип издания: оригинал
Наличие сканов в содержимом раздачи: да
Продолжительность: 00:26:18
Тексты: отсутствуют
Кодек: ALAC
Программа-риповщик : foobar2000 + iTunes (lossless)
Битрейт: lossless
Треклист:
01. Ой, дубе
02. Зашумела ляшчынонька
03. Дзякуй Богу
04. Як пушчу стралу
05. А ці дома, дома
06. Купала на Йвана
07. Наталка на Купалах
08. Ішла зорка ясна
09. Ой, ты, бабочко
10. Туман, мамка
11. Ой, посію я гурочкі
12. А ў гародзе верба росла
  
Exact Audio Copy V0.99 prebeta 5 from 4. May 2009

Отчёт EAC об извлечении, выполненном 1. апреля 2012, 12:00

Яваровы людзі / Вырай

Дисковод: _NEC DVD_RW ND-3550A Adapter: 0 ID: 0

Режим чтения : ДостоверностьИспользование точного потока : ДаОтключение кэша аудио : ДаИспользование указателей C2 : Нет

Коррекция смещения при чтении : 48Способность читать области Lead-in и Lead-out : НетЗаполнение пропущенных сэмплов тишиной : ДаУдаление блоков с тишиной в начале и конце : НетПри вычислениях CRC использовались нулевые сэмплы : ДаИнтерфейс : Установленный внешний ASPI-интерфейс

Выходной формат : Внутренние WAV-операцииФормат сэмплов : 44.100 Гц; 16 бит; стерео

TOC извлечённого CD

Трек | Старт | Длительность | Начальный сектор | Конечный сектор --------------------------------------------------------------------- 1 | 0:00.00 | 3:07.28 | 0 | 14052 2 | 3:07.28 | 2:38.24 | 14053 | 25926 3 | 5:45.52 | 0:56.66 | 25927 | 30192 4 | 6:42.43 | 1:52.40 | 30193 | 38632 5 | 8:35.08 | 1:19.48 | 38633 | 44605 6 | 9:54.56 | 2:45.14 | 44606 | 56994 7 | 12:39.70 | 1:02.29 | 56995 | 61673 8 | 13:42.24 | 3:24.10 | 61674 | 76983 9 | 17:06.34 | 0:56.16 | 76984 | 81199 10 | 18:02.50 | 2:58.15 | 81200 | 94564 11 | 21:00.65 | 2:51.50 | 94565 | 107439 12 | 23:52.40 | 2:25.67 | 107440 | 118381

Характеристики диапазона извлечения и сообщения об ошибках

Выбранный диапазон

Имя файла F:\Music lossless\Яваровы людзі - Вырай.wav

Пиковый уровень 100.0 % Качество диапазона 100.0 % CRC теста 49277E34 CRC копии 49277E34 Копирование... OK

Ошибок не произошло

AccurateRip: сводка

Трек 1 нет в базе данныхТрек 2 нет в базе данныхТрек 3 нет в базе данныхТрек 4 нет в базе данныхТрек 5 нет в базе данныхТрек 6 нет в базе данныхТрек 7 нет в базе данныхТрек 8 нет в базе данныхТрек 9 нет в базе данныхТрек 10 нет в базе данныхТрек 11 нет в базе данныхТрек 12 нет в базе данных

Ни одного трека нет в базе AccurateRip

Конец отчёта
  
Started at: понедельник, 16. 04. 2012. - 21:56.011 file found

1 -===- F:\Music lossless\1\Яваровы людзі - Вырай lossless\Яваровы людзі - Вырай.flac Extracted successfully Conclusion: this track is CDDA with probability 100% Tempfile successfully deleted.

Finished at: понедельник, 16. 04. 2012. - 21:57.54 (operation time: 0:01.52)



Трекер:  [ 06-Май-2012 14:37 ]

  

Скачать .torrent

Размер .torrent файла 11 KB


Размер: 262 MB
Хэш (hash) релиза: f8d7718d14c719118e742df878f7c8d02a16d4d6

Еще никто не оставлял запись к записи скачать торрент Яваровы людзі - Вырай - 2012 . Будь первым!

!Обратная связь