Скачать через торрент Michael Kiske - Дискография 1996 - 2010 бесплатно русская версия torrent активатор

Если у вас наблюдаются проблемы со скриншотами, переходом по ссылками, скачиванием торрентов - проблемы в блокировщике рекламы AdBlock. #хорошегоДня!


Статистика раздачи
Размер:  2.77 GB   |    Зарегистрирован:  5 лет 5 месяцев   |    .torrent скачан:  53 раза   |   
Раздают:  1  
   
Загрузка...
 
Автор Сообщение

Galfimbul

avatar Galfimbul


Michael Kiske Дискография


Жанр: AOR / Hard Rock
Год: 1996 - 2010
Страна: Germany
Издатель (лейбл): Frontiers
Тексты: вшиты
Обложки: вшиты
Кодек: ALAC
Тип рипа: tracks
Программа-риповщик: foobar2000 + iTunes
Битрейт: lossless
Продолжительность: около 6.2 часа
Описание:

Михаэль киске — рок-исполнитель, более всего известный как вокалист немецкой пауэр-метал команды Helloween, в которой он пребывал с 1986 до 1993.
После ухода из Helloween Михаэль занялся сольной карьерой и регулярно принимает участие в метал-операх и других подобных проектах.

В 2005 Киске был приглашён Деннисом Вардом в проект Place Vendome.

9 мая 2008 вышел новый соло-альбом Киске под названием Past In Different Way, на котором написанные им для Helloween композиции были обработаны в акустической манере.

В 2008-2010 Киске принял участие в записи трёх новых альбомов группы Avantasia. В 2010 вместе с Амандой Сомервилль записал альбом Kiske/Somerville.

В 2009 году наметился новый поворот в музыкальной карьере Михаэля Киске. В процессе записи двух альбомов Place Vendome он сблизился с Деннисом Вардом и Костой Зафириу, в которых, по его словам, нашёл две родственные музыкальные души. В это трио влился гитарист Менди Майер (Krokus). Так появился на свет проект Unisonic — первый после Supared случай полноценного участия Михаэля Киске в рок-группе с момента ухода из Helloween в конце 1993 года. В марте 2011 года к группе присоединился Кай Хансен. Выход дебютного альбома группы Unisonic запланирован на 2012 год.

01. Be True To Yourself (4:39)
02. The Calling (4:08)
03. Somebody Somewhere (4:28)
04. Burned Out (4:45)
05. New Horizons (4:22)
06. Hunted (4:25)
07. Always (4:30)
08. Thanx A Lot! (5:24)
09. Time's Passing By (3:45)
10. So Sick (4:29)
11. Do I Remember A Life? (10:38)
12. A Song Is Just A Moment (Original Japan Bonus Track) (4:20)
13. I Don't Deserve Love (Bonus Track) (4:39)
14. Sacred Grounds (Bonus Track) (4:05)
15. Can't Tell (Bonus Track) (3:27)
Michael Kiske – vocals, guitar, keyboard, sound effects
Ciriaco Taraxes – guitar
Jens Mencl – bass guitar
Kay Rudi Wolke – drums, guitar ("Time's Passing By")

Guest musicians
Kai Hansen – guitar
Adrian Smith – guitar
Norbert Krietemeyer – flute
Exact Audio Copy V1.0 beta 2 from 29. April 2011

EAC extraction logfile from 12. June 2011, 19:19

Michael Kiske / Instant Clarity

Used drive : PIONEER DVD-RW DVR-112D Adapter: 1 ID: 0

Read mode : Secure
Utilize accurate stream : Yes
Defeat audio cache : Yes
Make use of C2 pointers : No

Read offset correction : 48
Overread into Lead-In and Lead-Out : No
Fill up missing offset samples with silence : Yes
Delete leading and trailing silent blocks : No
Null samples used in CRC calculations : Yes
Used interface : Installed external ASPI interface

Used output format : User Defined Encoder
Selected bitrate : 1024 kBit/s
Quality : High
Add ID3 tag : No
Command line compressor : C:\Program Files\Exact Audio Copy\FLAC\FLAC.EXE
Additional command line options : -8 -V -T "ARTIST=%artist%" -T "TITLE=%title%" -T "ALBUM=%albumtitle%" -T "DATE=%year%" -T "TRACKNUMBER=%tracknr%" -T "GENRE=%genre%" -T "COMMENT=%comment%" -T "BAND=%albuminterpret%" -T "COMPOSER=%composer%" %haslyrics%--ta

TOC of the extracted CD

Track | Start | Length | Start sector | End sector
---------------------------------------------------------
1 | 0:00.00 | 4:38.53 | 0 | 20902
2 | 4:38.53 | 4:07.47 | 20903 | 39474
3 | 8:46.25 | 4:27.45 | 39475 | 59544
4 | 13:13.70 | 4:44.53 | 59545 | 80897
5 | 17:58.48 | 4:21.72 | 80898 | 100544
6 | 22:20.45 | 4:24.43 | 100545 | 120387
7 | 26:45.13 | 4:29.45 | 120388 | 140607
8 | 31:14.58 | 5:24.17 | 140608 | 164924
9 | 36:39.00 | 3:44.50 | 164925 | 181774
10 | 40:23.50 | 4:29.25 | 181775 | 201974
11 | 44:53.00 | 10:38.28 | 201975 | 249852
12 | 55:31.28 | 4:20.15 | 249853 | 269367
13 | 59:51.43 | 4:38.56 | 269368 | 290273
14 | 64:30.24 | 4:04.39 | 290274 | 308612
15 | 68:34.63 | 3:26.38 | 308613 | 324100

Range status and errors

Selected range

Filename C:\CDRip by Deminbek\Michael Kiske - Instant Clarity [Irond CD 06-DD377].wav

Peak level 100.0 %
Extraction speed 7.9 X
Range quality 99.9 %
Test CRC 15BAC11E
Copy CRC 15BAC11E
Copy OK

No errors occurred

AccurateRip summary

Track 1 cannot be verified as accurate (confidence 2) [066B4F32], AccurateRip returned [E11CF993] (AR v2)
Track 2 cannot be verified as accurate (confidence 2) [8C2D0A68], AccurateRip returned [19FFC6A4] (AR v2)
Track 3 cannot be verified as accurate (confidence 2) [B33A153B], AccurateRip returned [B162B4D0] (AR v2)
Track 4 cannot be verified as accurate (confidence 2) [E3FB97DF], AccurateRip returned [54584476] (AR v2)
Track 5 cannot be verified as accurate (confidence 2) [53C21169], AccurateRip returned [6D16EC07] (AR v2)
Track 6 cannot be verified as accurate (confidence 2) [1481ACC8], AccurateRip returned [9F43E659] (AR v2)
Track 7 cannot be verified as accurate (confidence 2) [E7B141F0], AccurateRip returned [1ED12C72] (AR v2)
Track 8 cannot be verified as accurate (confidence 2) [9E23F7F2], AccurateRip returned [40227C50] (AR v2)
Track 9 cannot be verified as accurate (confidence 2) [93CE5124], AccurateRip returned [1240AFB2] (AR v2)
Track 10 cannot be verified as accurate (confidence 2) [D39D0556], AccurateRip returned [0552AB8A] (AR v2)
Track 11 cannot be verified as accurate (confidence 2) [0BC5B2D5], AccurateRip returned [BEA1EDB3] (AR v2)
Track 12 cannot be verified as accurate (confidence 2) [BFB1BB51], AccurateRip returned [979891D8] (AR v2)
Track 13 cannot be verified as accurate (confidence 2) [63B1CF09], AccurateRip returned [D1569AC3] (AR v2)
Track 14 cannot be verified as accurate (confidence 2) [0896A4BE], AccurateRip returned [2FBD29B0] (AR v2)
Track 15 cannot be verified as accurate (confidence 2) [7F4A0F94], AccurateRip returned [B8D0D0CC] (AR v2)

No tracks could be verified as accurate
You may have a different pressing from the one(s) in the database

End of status report

==== Log checksum 28516BAE9620FCE8E2BF7C10FD8250BD0F9300A6300223054ABD6A71135CA22A ====
01. Could Cry (4:42)
02. Ban' em (6:38)
03. Philistine City (4:31)
04. Crosstown (3:37)
05. Where Wishes Fly (5:29)
06. Watch Your Blue (4:17)
07. Out Of Homes (4:14)
08. It (4:09)
09. Easy (5:48)
10. Shadowfights (3:19)
Michael Kiske – vocals, guitar, keyboard
Ciriaco Taraxes – guitar, keyboard
Jens Mencl – bass guitar
Juergen Spiegel – drums

Guest musicians
The Bremer Weser Quartett – strings
Norbert Krietemeyer – flute
Ralli D. – bass guitar ("Watch Your Blue")
Kay Rudi Wolke – drums ("Philistine City" and "Watch Your Blue")
Exact Audio Copy V0.99 prebeta 5 from 4. May 2009
EAC extraction logfile from 3. April 2010, 22:04

Michael Kiske / R.T.S.

Used drive : Optiarc DVD RW AD-7241S Adapter: 2 ID: 0

Read mode : Secure
Utilize accurate stream : Yes
Defeat audio cache : Yes
Make use of C2 pointers : No

Read offset correction : 48
Overread into Lead-In and Lead-Out : No
Fill up missing offset samples with silence : Yes
Delete leading and trailing silent blocks : No
Null samples used in CRC calculations : Yes
Used interface : Installed external ASPI interface

Used output format : User Defined Encoder
Selected bitrate : 768 kBit/s
Quality : High
Add ID3 tag : No
Command line compressor : C:\Program Files\Exact Audio Copy\FLAC\FLAC.EXE
Additional command line options : -8 -V -T "ARTIST=%a" -T "TITLE=%t" -T "ALBUM=%g" -T "DATE=%y" -T "TRACKNUMBER=%n" -T "GENRE=%m" -T "COMMENT=%e" %s -o %d

TOC of the extracted CD

Track | Start | Length | Start sector | End sector
---------------------------------------------------------
1 | 0:00.37 | 4:41.40 | 37 | 21151
2 | 4:42.02 | 6:37.45 | 21152 | 50971
3 | 11:19.47 | 4:31.05 | 50972 | 71301
4 | 15:50.52 | 3:36.40 | 71302 | 87541
5 | 19:27.17 | 5:28.43 | 87542 | 112184
6 | 24:55.60 | 4:16.52 | 112185 | 131436
7 | 29:12.37 | 4:13.38 | 131437 | 150449
8 | 33:26.00 | 4:08.50 | 150450 | 169099
9 | 37:34.50 | 5:47.42 | 169100 | 195166
10 | 43:22.17 | 3:19.28 | 195167 | 210119

Range status and errors

Selected range

Filename E:\Temp\Michael Kiske - R.T.S..wav

Peak level 97.7 %
Range quality 100.0 %
Copy CRC 1D2FA206
Copy OK

No errors occurred

AccurateRip summary

Track 1 not present in database
Track 2 not present in database
Track 3 not present in database
Track 4 not present in database
Track 5 not present in database
Track 6 not present in database
Track 7 not present in database
Track 8 not present in database
Track 9 not present in database
Track 10 not present in database

None of the tracks are present in the AccurateRip database

End of status report
01. Fed By Stones (4:48)
02. All - Solutionns (4:41)
03. Knew I Would (4:04)
04. Kings - Fall (4:27)
05. Hearts Are Free [Corinna Wolke - harmony-voice] (4:06)
06. The King Of It All [Hanmari Spiegel - Violine-solos] (4:46)
07. Sing My Song (3:26)
08. Silently Craving (4:11)
09. Truly [George Spiegel - trombone, Corinna Wolke - harmony-voice] (3:45)
10. Painted [Martin Tingvall - piano-bits] (4:46)
11. Sad As The World (3:24)
Michael Kiske – vocals, guitars, keyboards
Fontaine Burnett – bass
Sandro Giampietro – guitars
Karsten Nagel – drums
Exact Audio Copy V1.0 beta 2 from 29. April 2011

EAC extraction logfile from 7. June 2011, 22:39

Michael Kiske / Kiske

Used drive : PIONEER DVD-RW DVR-112D Adapter: 1 ID: 0

Read mode : Secure
Utilize accurate stream : Yes
Defeat audio cache : Yes
Make use of C2 pointers : No

Read offset correction : 48
Overread into Lead-In and Lead-Out : No
Fill up missing offset samples with silence : Yes
Delete leading and trailing silent blocks : No
Null samples used in CRC calculations : Yes
Used interface : Installed external ASPI interface

Used output format : User Defined Encoder
Selected bitrate : 1024 kBit/s
Quality : High
Add ID3 tag : No
Command line compressor : C:\Program Files\Exact Audio Copy\FLAC\FLAC.EXE
Additional command line options : -8 -V -T "ARTIST=%artist%" -T "TITLE=%title%" -T "ALBUM=%albumtitle%" -T "DATE=%year%" -T "TRACKNUMBER=%tracknr%" -T "GENRE=%genre%" -T "COMMENT=%comment%" -T "BAND=%albuminterpret%" -T "COMPOSER=%composer%" %haslyrics%--ta

TOC of the extracted CD

Track | Start | Length | Start sector | End sector
---------------------------------------------------------
1 | 0:00.00 | 4:47.71 | 0 | 21595
2 | 4:47.71 | 4:41.04 | 21596 | 42674
3 | 9:29.00 | 4:04.17 | 42675 | 60991
4 | 13:33.17 | 4:27.19 | 60992 | 81035
5 | 18:00.36 | 4:05.42 | 81036 | 99452
6 | 22:06.03 | 4:45.64 | 99453 | 120891
7 | 26:51.67 | 3:26.15 | 120892 | 136356
8 | 30:18.07 | 4:11.04 | 136357 | 155185
9 | 34:29.11 | 3:45.21 | 155186 | 172081
10 | 38:14.32 | 4:45.39 | 172082 | 193495
11 | 42:59.71 | 3:23.41 | 193496 | 208761

Range status and errors

Selected range

Filename C:\CDRip by Deminbek\Michael Kiske - Kiske [Irond 06-DD378].wav

Peak level 99.9 %
Extraction speed 6.8 X
Range quality 99.9 %
Test CRC C0E931BB
Copy CRC C0E931BB
Copy OK

No errors occurred

AccurateRip summary

Track 1 accurately ripped (confidence 3) [F736B13C] (AR v1)
Track 2 accurately ripped (confidence 3) [A00FDA22] (AR v1)
Track 3 accurately ripped (confidence 3) [7AEF1BFD] (AR v1)
Track 4 accurately ripped (confidence 3) [DCDDFA47] (AR v1)
Track 5 accurately ripped (confidence 3) [DA629917] (AR v1)
Track 6 accurately ripped (confidence 3) [7227181D] (AR v1)
Track 7 accurately ripped (confidence 3) [A7EFFE9B] (AR v1)
Track 8 accurately ripped (confidence 3) [111E459D] (AR v1)
Track 9 accurately ripped (confidence 3) [8C266746] (AR v1)
Track 10 accurately ripped (confidence 3) [1F3C7CC9] (AR v1)
Track 11 accurately ripped (confidence 3) [00966F52] (AR v1)

All tracks accurately ripped

End of status report

==== Log checksum FA74824152F6E95951D79E3CCB4EC00753051F87F3D2264C3AD72C5E6F5F2173 ====
01. You Always Walk Alone (4:25)
02. We Got The Right (4:49)
03. I Believe (7:45)
04. Longing (4:10)
05. Your Turn (5:59)
06. Kids Of The Century (4:24)
07. In The Night (5:08)
08. Going Home (3:31)
09. A Little Time (3:58)
10. When The Sinner (5:33)
11. Different Ways (3:06)
Michael Kiske – vocals, guitar, keyboard
Sandro Giampietro – guitar
Fontaine Burnett – bass guitar
Karsten Nagel – drums

Guest musicians
Hanmari Spiegel – violins, piano on track 10.
George Spiegel – accordion, trombone
Benny Brown – trumpet on track 2.
Отчёт EAC об извлечении, выполненном 22. июня 2008, 1:04 для диска:
Kiske, Michael / Past In Different Ways

Дисковод: ASUS DRW-1814BLT Adapter: 1 ID: 0
Режим чтения: Достоверный (C2: нет, Точный поток: да, Отключение кэша: да)
Коррекция смещения при чтении: 6
Способность читать области Lead-in и Lead-out : Нет

Выходной формат: C:\Program Files\Monkey's Audio\MAC.exe (Monkey's Audio (без потерь))
High Lossless Compression

Другие параметры:
Заполнение пропущенных сэмплов тишиной : Да
Удаление блоков с тишиной в начале и конце : Нет
Установленный внешний ASPI-интерфейс

Характеристики диапазона извлечения и сообщения об ошибках
Выбранный диапазон
Имя файла D:\MUSIC\Kiske, Michael - Past In Different Ways.wav

Пиковый уровень 100.0 %
Качество диапазона 100.0 %
CRC 425EB0A9
Копирование... OK

Ошибок не произошло

Конец отчёта

1. Cross The Line
2. I Will Be Waiting
3. Too Late
4. I Will Be Gone
5. The Setting Sun
6. Place Vendome
7. Heavens Door
8. Right Here
9. Magic Carpet Ride
10. Sigh Of The Times
11. Photograph
Michael Kiske – vocals
Uwe Reitenauer – guitars
Dennis Ward – bass, producer
Kostas Zafiriou – drums
Gunther Werno - keyboards
Exact Audio Copy V0.99 prebeta 4 from 23. January 2008

EAC extraction logfile from 4. November 2008, 13:20

Place Vendome / Place Vendome

Used drive : Optiarc DVD RW AD-7201S Adapter: 3 ID: 0

Read mode : Secure
Utilize accurate stream : Yes
Defeat audio cache : Yes
Make use of C2 pointers : No

Read offset correction : 48
Overread into Lead-In and Lead-Out : No
Fill up missing offset samples with silence : Yes
Delete leading and trailing silent blocks : No
Null samples used in CRC calculations : Yes
Used interface : Native Win32 interface for Win NT & 2000
Gap handling : Appended to previous track

Used output format : User Defined Encoder
Selected bitrate : 320 kBit/s
Quality : High
Add ID3 tag : No
Command line compressor : C:\Program Files\Exact Audio Copy\Flac\flac.exe
Additional command line options : -V -8 -T "artist=%a" -T "title=%t" -T "album=%g" -T "date=%y" -T "tracknumber=%n" -T "genre=%m" %s

TOC of the extracted CD

Track | Start | Length | Start sector | End sector
---------------------------------------------------------
1 | 0:00.00 | 4:56.53 | 0 | 22252
2 | 4:56.53 | 4:56.52 | 22253 | 44504
3 | 9:53.30 | 4:17.14 | 44505 | 63793
4 | 14:10.44 | 5:12.67 | 63794 | 87260
5 | 19:23.36 | 4:48.49 | 87261 | 108909
6 | 24:12.10 | 3:58.74 | 108910 | 126833
7 | 28:11.09 | 4:06.69 | 126834 | 145352
8 | 32:18.03 | 4:13.44 | 145353 | 164371
9 | 36:31.47 | 4:01.40 | 164372 | 182486
10 | 40:33.12 | 5:18.55 | 182487 | 206391
11 | 45:51.67 | 4:41.24 | 206392 | 227490

Track 1

Filename F:\Waffles Uploads\Place Vendome - Place Vendome\01. Place Vendome - Cross The Line.wav

Pre-gap length 0:00:02.00

Peak level 98.9 %
Track quality 100.0 %
Test CRC 872470A2
Copy CRC 872470A2
Track not present in AccurateRip database
Copy OK

Track 2

Filename F:\Waffles Uploads\Place Vendome - Place Vendome\02. Place Vendome - I Will Be Waiting.wav

Pre-gap length 0:00:00.82

Peak level 98.8 %
Track quality 100.0 %
Test CRC 788039AD
Copy CRC 788039AD
Track not present in AccurateRip database
Copy OK

Track 3

Filename F:\Waffles Uploads\Place Vendome - Place Vendome\03. Place Vendome - Too Late.wav

Pre-gap length 0:00:02.04

Peak level 98.8 %
Track quality 100.0 %
Test CRC 1ED43545
Copy CRC 1ED43545
Track not present in AccurateRip database
Copy OK

Track 4

Filename F:\Waffles Uploads\Place Vendome - Place Vendome\04. Place Vendome - I Will Be Gone.wav

Pre-gap length 0:00:02.02

Peak level 98.8 %
Track quality 100.0 %
Test CRC ADC2C90A
Copy CRC ADC2C90A
Track not present in AccurateRip database
Copy OK

Track 5

Filename F:\Waffles Uploads\Place Vendome - Place Vendome\05. Place Vendome - The Setting Sun.wav

Pre-gap length 0:00:02.38

Peak level 98.8 %
Track quality 100.0 %
Test CRC 34DF6A11
Copy CRC 34DF6A11
Track not present in AccurateRip database
Copy OK

Track 6

Filename F:\Waffles Uploads\Place Vendome - Place Vendome\06. Place Vendome - Place Vendome.wav

Pre-gap length 0:00:02.14

Peak level 98.8 %
Track quality 100.0 %
Test CRC 169ADCBA
Copy CRC 169ADCBA
Track not present in AccurateRip database
Copy OK

Track 7

Filename F:\Waffles Uploads\Place Vendome - Place Vendome\07. Place Vendome - Heavens Door.wav

Pre-gap length 0:00:01.58

Peak level 98.8 %
Track quality 100.0 %
Test CRC 6935139D
Copy CRC 6935139D
Track not present in AccurateRip database
Copy OK

Track 8

Filename F:\Waffles Uploads\Place Vendome - Place Vendome\08. Place Vendome - Right Here.wav

Pre-gap length 0:00:02.86

Peak level 98.8 %
Track quality 100.0 %
Test CRC 789A52B9
Copy CRC 789A52B9
Track not present in AccurateRip database
Copy OK

Track 9

Filename F:\Waffles Uploads\Place Vendome - Place Vendome\09. Place Vendome - Magic Carpet Ride.wav

Pre-gap length 0:00:02.24

Peak level 98.8 %
Track quality 100.0 %
Test CRC ACC644EE
Copy CRC ACC644EE
Track not present in AccurateRip database
Copy OK

Track 10

Filename F:\Waffles Uploads\Place Vendome - Place Vendome\10. Place Vendome - Sign Of The Times.wav

Pre-gap length 0:00:02.54

Peak level 98.8 %
Track quality 100.0 %
Test CRC 390A00B5
Copy CRC 390A00B5
Track not present in AccurateRip database
Copy OK

Track 11

Filename F:\Waffles Uploads\Place Vendome - Place Vendome\11. Place Vendome - Photograph.wav

Pre-gap length 0:00:02.70

Peak level 98.8 %
Track quality 100.0 %
Test CRC C04E3020
Copy CRC C04E3020
Track not present in AccurateRip database
Copy OK

None of the tracks are present in the AccurateRip database

No errors occurred

End of status report
1. Streets Of Fire
2. My Guardian Angel
3. Completely Breathless
4. Follow Me
5. Set Me Free
6. Believer
7. Valerie
8. A Scene In Replay
9. Changes
10. Surrender Your Soul
11. Dancer
12. I'd Die For You
Michael Kiske – vocals
Uwe Reitenauer – guitars
Dennis Ward – bass guitar, producer
Kostas Zafiriou – drums
Gunther Werno - keyboards
EAC extraction logfile from 24. February 2009, 17:52 for CD
Place Vendome / Streets Of Fire

Used drive : PLEXTOR DVDR PX-716A Adapter: 1 ID: 0
Read mode : Secure with NO C2, accurate stream, disable cache
Read offset correction : 30
Overread into Lead-In and Lead-Out : No

Used output format : Internal WAV Routines
44.100 Hz; 16 Bit; Stereo

Other options :
Fill up missing offset samples with silence : Yes
Delete leading and trailing silent blocks : No
Native Win32 interface for Win NT & 2000

Range status and errors
Selected range
Filename D:\Streets Of Fire.wav

Peak level 100.0 %
Range quality 100.0 %
CRC 21916A92
Copy OK

No errors occured

End of status report

01. Nothing Left To Say (4:37)
02. Silence (6:21)
03. If I Had A Wish (4:21)
04. Arise (3:15)
05. End Of The Road (5:11)
06. Don't Walk Away (4:30)
07. A Thousand Suns (3:58)
08. Rain (3:47)
09. One Night Burning (4:05)
10. Devil In Her Heart (4:25)
11. Second Chance (4:56)
12. One Night Burning (Acoustic Version - Bonus Track For Japan) (3:24)
Michael Kiske - vocals
Amanda Somerville - vocals
Mat Sinner - bass, backing vocals
Magnus Karlsson - lead and rhythm guitar, keyboards
Sander Gommans - lead guitar
Martin Schmidt - drums
Ramy Ali - drums
Jimmy Kresic - keyboards
Exact Audio Copy V0.99 prebeta 5 from 4. May 2009

EAC extraction logfile from 14. November 2011, 16:56

Kiske-Somerville / Kiske-Somerville (King, KICP-1495)

Used drive : Optiarc BD RW BD-5740H Adapter: 0 ID: 1

Read mode : Secure
Utilize accurate stream : Yes
Defeat audio cache : Yes
Make use of C2 pointers : No

Read offset correction : 48
Overread into Lead-In and Lead-Out : No
Fill up missing offset samples with silence : Yes
Delete leading and trailing silent blocks : No
Null samples used in CRC calculations : Yes
Used interface : Native Win32 interface for Win NT & 2000

Used output format : User Defined Encoder
Selected bitrate : 128 kBit/s
Quality : High
Add ID3 tag : No
Command line compressor : C:\Program Files (x86)\FLAC\flac.exe
Additional command line options : -T "DATE=%y" -T "GENRE=%m" -8 -V %s

TOC of the extracted CD

Track | Start | Length | Start sector | End sector
---------------------------------------------------------
1 | 0:00.00 | 4:37.06 | 0 | 20780
2 | 4:37.06 | 6:20.41 | 20781 | 49321
3 | 10:57.47 | 4:20.48 | 49322 | 68869
4 | 15:18.20 | 3:15.08 | 68870 | 83502
5 | 18:33.28 | 5:11.14 | 83503 | 106841
6 | 23:44.42 | 4:30.29 | 106842 | 127120
7 | 28:14.71 | 3:58.01 | 127121 | 144971
8 | 32:12.72 | 3:47.33 | 144972 | 162029
9 | 36:00.30 | 4:04.46 | 162030 | 180375
10 | 40:05.01 | 4:25.36 | 180376 | 200286
11 | 44:30.37 | 4:56.04 | 200287 | 222490
12 | 49:26.41 | 3:23.68 | 222491 | 237783

Range status and errors

Selected range

Filename C:\Ripped By liveevil\Kiske-Somerville - Kiske-Somerville (King, KICP-1495).wav

Peak level 98.9 %
Range quality 100.0 %
Test CRC A24A9FED
Copy CRC A24A9FED
Copy OK

No errors occurred

AccurateRip summary

Track 1 not present in database
Track 2 not present in database
Track 3 not present in database
Track 4 not present in database
Track 5 not present in database
Track 6 not present in database
Track 7 not present in database
Track 8 not present in database
Track 9 not present in database
Track 10 not present in database
Track 11 not present in database
Track 12 not present in database

None of the tracks are present in the AccurateRip database

End of status report


Трекер:  [ 06-Май-2012 14:38 ]

  

Скачать .torrent

Размер .torrent файла 22 KB


Размер: 2.77 GB
Хэш (hash) релиза: 23551ef49b956dd6d9b5cecf83471793eb0e8646

Еще никто не оставлял запись к записи скачать торрент Michael Kiske - Дискография 1996 - 2010 . Будь первым!

!Обратная связь