Скачать через торрент Thousand Foot Krutch - Discography - 1998-2012 бесплатно русская версия torrent активатор

Если у вас наблюдаются проблемы со скриншотами, переходом по ссылками, скачиванием торрентов - проблемы в блокировщике рекламы AdBlock. #хорошегоДня!


Статистика раздачи
Размер:  2.28 GB   |    Зарегистрирован:  5 лет 5 месяцев   |    .torrent скачан:  91 раз   |   
Раздают:  1  
   
Загрузка...
 
Автор Сообщение

Galfimbul

avatar Galfimbul


Thousand Foot Krutch - Discography


Период: 1998-2009 | Страна: | Жанр: Alternative, Christian | Тип издания: сборник | Продолжительность: 05:16:45
Тексты: вшиты | Кодек: ALAC | Программа-риповщик : foobar2000 + iTunes (lossless) | Битрейт: lossless
Треклист:
1.) Rhyme Animal - 5:09
2.) Brother John - 5:49
3.) Small Town - 6:53
4.) Lift It - 4:28
5.) Set It Off - 6:07
6.) Breather - 3:32
7.) Sweet Unknown - 4:25
8.) Sunshyne - 3:38
9.) Moment Of The Day - 4:08
10.) The Alternative Song - 4:30
Exact Audio Copy V0.99 prebeta 4 from 23. January 2008

EAC extraction logfile from 22. August 2009, 0:09

Thousand Foot Krutch / That's What People Do

Used drive : LITE-ON DVDRW LH-20A1S Adapter: 1 ID: 0

Read mode : Secure
Utilize accurate stream : Yes
Defeat audio cache : Yes
Make use of C2 pointers : No

Read offset correction : 6
Overread into Lead-In and Lead-Out : No
Fill up missing offset samples with silence : Yes
Delete leading and trailing silent blocks : No
Null samples used in CRC calculations : Yes
Used interface : Installed external ASPI interface
Gap handling : Appended to previous track

Used output format : User Defined Encoder
Selected bitrate : 768 kBit/s
Quality : High
Add ID3 tag : No
Command line compressor : C:\Program Files\Exact Audio Copy\FLAC\FLAC.EXE
Additional command line options : -6 -V -T "ARTIST=%a" -T "TITLE=%t" -T "ALBUM=%g" -T "DATE=%y" -T "TRACKNUMBER=%n" -T "GENRE=%m" -T "COMMENT=%e" %s -o %d

TOC of the extracted CD

Track | Start | Length | Start sector | End sector
---------------------------------------------------------
1 | 0:00.00 | 5:09.24 | 0 | 23198
2 | 5:09.24 | 5:48.47 | 23199 | 49345
3 | 10:57.71 | 6:53.29 | 49346 | 80349
4 | 17:51.25 | 4:28.28 | 80350 | 100477
5 | 22:19.53 | 6:06.59 | 100478 | 127986
6 | 28:26.37 | 3:31.51 | 127987 | 143862
7 | 31:58.13 | 4:25.07 | 143863 | 163744
8 | 36:23.20 | 3:38.10 | 163745 | 180104
9 | 40:01.30 | 4:08.13 | 180105 | 198717
10 | 44:09.43 | 4:30.13 | 198718 | 218980

Track 1

Filename C:\Documents and Settings\Lenny\My Documents\01. Rhyme Animal.wav

Peak level 96.6 %
Track quality 100.0 %
Test CRC 325EA12D
Copy CRC 325EA12D
Track not present in AccurateRip database
Copy OK

Track 2

Filename C:\Documents and Settings\Lenny\My Documents\02. Brother John.wav

Peak level 96.6 %
Track quality 100.0 %
Test CRC 101DB4D3
Copy CRC 101DB4D3
Track not present in AccurateRip database
Copy OK

Track 3

Filename C:\Documents and Settings\Lenny\My Documents\03. Small Town.wav

Peak level 96.6 %
Track quality 99.9 %
Test CRC 89B14138
Copy CRC 89B14138
Track not present in AccurateRip database
Copy OK

Track 4

Filename C:\Documents and Settings\Lenny\My Documents\04. Lift It.wav

Peak level 96.6 %
Track quality 100.0 %
Test CRC 1ECD5439
Copy CRC 1ECD5439
Track not present in AccurateRip database
Copy OK

Track 5

Filename C:\Documents and Settings\Lenny\My Documents\05. Set It Off.wav

Peak level 96.6 %
Track quality 100.0 %
Test CRC 7E3E7FAF
Copy CRC 7E3E7FAF
Track not present in AccurateRip database
Copy OK

Track 6

Filename C:\Documents and Settings\Lenny\My Documents\06. Breather.wav

Peak level 96.6 %
Track quality 100.0 %
Test CRC 2DD9772B
Copy CRC 2DD9772B
Track not present in AccurateRip database
Copy OK

Track 7

Filename C:\Documents and Settings\Lenny\My Documents\07. Sweet Unknown.wav

Peak level 76.7 %
Track quality 100.0 %
Test CRC B09A002D
Copy CRC B09A002D
Track not present in AccurateRip database
Copy OK

Track 8

Filename C:\Documents and Settings\Lenny\My Documents\08. Sunshyne.wav

Peak level 96.6 %
Track quality 99.9 %
Test CRC 7B6E3E9C
Copy CRC 7B6E3E9C
Track not present in AccurateRip database
Copy OK

Track 9

Filename C:\Documents and Settings\Lenny\My Documents\09. Moment Of The Day.wav

Peak level 86.1 %
Track quality 100.0 %
Test CRC 83E47F11
Copy CRC 83E47F11
Track not present in AccurateRip database
Copy OK

Track 10

Filename C:\Documents and Settings\Lenny\My Documents\10. The Alternative Song.wav

Peak level 96.6 %
Track quality 100.0 %
Test CRC D5F33158
Copy CRC D5F33158
Track not present in AccurateRip database
Copy OK

None of the tracks are present in the AccurateRip database

No errors occurred

End of status report
1.) Data - 1:01
2.) Puppet - 3:25
3.) Supafly - 3:40
4.) When in Doubt - 3:27
5.) Rhyme Animal - 4:27
6.) Unbelievable - 3:03
7.) Up Comes Down - 3:22
8.) Come Along - 3:23
9.) Small Town - 6:54
10.) Set it Off - 6:03
11.) All The Way Live - 4:10
12.) Lift It - 3:59
Exact Audio Copy V0.99 prebeta 3 from 28. July 2007

EAC extraction logfile from 22. August 2007, 10:00

Thousand Foot Krutch / Set it Off

Used drive : HL-DT-STRW/DVD GCC-4242N Adapter: 1 ID: 0

Read mode : Secure
Utilize accurate stream : Yes
Defeat audio cache : Yes
Make use of C2 pointers : No

Read offset correction : 102
Overread into Lead-In and Lead-Out : No
Fill up missing offset samples with silence : Yes
Delete leading and trailing silent blocks : No
Null samples used in CRC calculations : Yes
Used interface : Native Win32 interface for Win NT & 2000
Gap handling : Not detected, thus appended to previous track

Used output format : User Defined Encoder
Selected bitrate : 768 kBit/s
Quality : High
Add ID3 tag : No
Command line compressor : C:\Program Files\Exact Audio Copy\FLAC\FLAC.EXE
Additional command line options : -V -8 -T "artist=%a" -T "title=%t" -T "album=%g" -T "date=%y" -T "tracknumber=%n" -T "genre=%m" %s

TOC of the extracted CD

Track | Start | Length | Start sector | End sector
---------------------------------------------------------
1 | 0:00.00 | 1:01.21 | 0 | 4595
2 | 1:01.21 | 3:24.59 | 4596 | 19954
3 | 4:26.05 | 3:40.32 | 19955 | 36486
4 | 8:06.37 | 3:26.66 | 36487 | 52002
5 | 11:33.28 | 4:27.10 | 52003 | 72037
6 | 16:00.38 | 3:03.27 | 72038 | 85789
7 | 19:03.65 | 3:21.61 | 85790 | 100925
8 | 22:25.51 | 3:23.00 | 100926 | 116150
9 | 25:48.51 | 6:53.63 | 116151 | 147188
10 | 32:42.39 | 6:03.11 | 147189 | 174424
11 | 38:45.50 | 4:10.01 | 174425 | 193175
12 | 42:55.51 | 3:58.61 | 193176 | 211086

Track 1

Filename C:\Converted Music\Thousand Foot Krutch\Set it Off\Thousand Foot Krutch - 01 - Data.wav

Peak level 100.0 %
Track quality 100.0 %
Test CRC CB0D4AE3
Copy CRC CB0D4AE3
Accurately ripped (confidence 2) [9343678E]
Copy OK

Track 2

Filename C:\Converted Music\Thousand Foot Krutch\Set it Off\Thousand Foot Krutch - 02 - Puppet.wav

Peak level 100.0 %
Track quality 100.0 %
Test CRC 455C6C5A
Copy CRC 455C6C5A
Accurately ripped (confidence 2) [1E659EEB]
Copy OK

Track 3

Filename C:\Converted Music\Thousand Foot Krutch\Set it Off\Thousand Foot Krutch - 03 - Supafly.wav

Peak level 100.0 %
Track quality 100.0 %
Test CRC 31E2A6A5
Copy CRC 31E2A6A5
Accurately ripped (confidence 2) [6E492CF1]
Copy OK

Track 4

Filename C:\Converted Music\Thousand Foot Krutch\Set it Off\Thousand Foot Krutch - 04 - When in Doubt.wav

Peak level 100.0 %
Track quality 99.9 %
Test CRC 8EA047F8
Copy CRC 8EA047F8
Accurately ripped (confidence 2) [0EDD3CF6]
Copy OK

Track 5

Filename C:\Converted Music\Thousand Foot Krutch\Set it Off\Thousand Foot Krutch - 05 - Rhime Animal.wav

Peak level 100.0 %
Track quality 100.0 %
Test CRC 720855F6
Copy CRC 720855F6
Accurately ripped (confidence 2) [2130735D]
Copy OK

Track 6

Filename C:\Converted Music\Thousand Foot Krutch\Set it Off\Thousand Foot Krutch - 06 - Unbelievable.wav

Peak level 100.0 %
Track quality 100.0 %
Test CRC DB959519
Copy CRC DB959519
Accurately ripped (confidence 2) [ECF93D94]
Copy OK

Track 7

Filename C:\Converted Music\Thousand Foot Krutch\Set it Off\Thousand Foot Krutch - 07 - Up Comes Down.wav

Peak level 100.0 %
Track quality 100.0 %
Test CRC E5CCD256
Copy CRC E5CCD256
Accurately ripped (confidence 2) [5AEE899C]
Copy OK

Track 8

Filename C:\Converted Music\Thousand Foot Krutch\Set it Off\Thousand Foot Krutch - 08 - Come Along.wav

Peak level 100.0 %
Track quality 100.0 %
Test CRC 9EE34CA2
Copy CRC 9EE34CA2
Accurately ripped (confidence 2) [A925C7BE]
Copy OK

Track 9

Filename C:\Converted Music\Thousand Foot Krutch\Set it Off\Thousand Foot Krutch - 09 - Small Town.wav

Peak level 100.0 %
Track quality 100.0 %
Test CRC ADBB0B46
Copy CRC ADBB0B46
Accurately ripped (confidence 2) [972F5C16]
Copy OK

Track 10

Filename C:\Converted Music\Thousand Foot Krutch\Set it Off\Thousand Foot Krutch - 10 - Set it Off.wav

Peak level 100.0 %
Track quality 100.0 %
Test CRC A6B0E2C1
Copy CRC A6B0E2C1
Accurately ripped (confidence 2) [D345FB37]
Copy OK

Track 11

Filename C:\Converted Music\Thousand Foot Krutch\Set it Off\Thousand Foot Krutch - 11 - All The Way Live.wav

Peak level 100.0 %
Track quality 100.0 %
Test CRC C33D478C
Copy CRC C33D478C
Accurately ripped (confidence 2) [50840A5D]
Copy OK

Track 12

Filename C:\Converted Music\Thousand Foot Krutch\Set it Off\Thousand Foot Krutch - 12 - Lift It.wav

Peak level 100.0 %
Track quality 100.0 %
Test CRC 2A939389
Copy CRC 2A939389
Accurately ripped (confidence 2) [00479C85]
Copy OK

All tracks accurately ripped

No errors occurred

End of status report
1.) Phenomenon - 2:59
2.) Step to Me - 3:01
3.) Last Words - 2:48
4.) This is a Call - 3:50
5.) Rawkfist - 3:04
6.) Faith, Love and Happiness - 2:55
7.) I Climb - 3:25
8.) Quicken - 2:51
9.) New Design - 3:30
10.) Bounce - 3:07
11.) Ordinary - 3:10
12.) Break the Silence - 3:04
Exact Audio Copy V0.99 prebeta 4 from 23. January 2008

EAC extraction logfile from 17. February 2009, 22:06

Thousand Foot Krutch / Phenomenon

Used drive : TSSTcorpDVD+-RW TS-H653B Adapter: 0 ID: 0

Read mode : Secure
Utilize accurate stream : Yes
Defeat audio cache : Yes
Make use of C2 pointers : No

Read offset correction : 6
Overread into Lead-In and Lead-Out : No
Fill up missing offset samples with silence : Yes
Delete leading and trailing silent blocks : No
Null samples used in CRC calculations : Yes
Used interface : Native Win32 interface for Win NT & 2000
Gap handling : Appended to previous track

Used output format : User Defined Encoder
Selected bitrate : 192 kBit/s
Quality : High
Add ID3 tag : No
Command line compressor : C:\Program Files\Exact Audio Copy\Flac\flac.exe
Additional command line options : -8 -A tukey(0.25) -A gauss(0.1875) -b 4096 -V -T "artist=%a" -T "title=%t" -T "album=%g" -T "date=%y" -T "tracknumber=%n" -T "genre=%m" %s

TOC of the extracted CD

Track | Start | Length | Start sector | End sector
---------------------------------------------------------
1 | 0:00.00 | 2:59.17 | 0 | 13441
2 | 2:59.17 | 3:00.40 | 13442 | 26981
3 | 5:59.57 | 2:48.13 | 26982 | 39594
4 | 8:47.70 | 3:49.68 | 39595 | 56837
5 | 12:37.63 | 3:03.43 | 56838 | 70605
6 | 15:41.31 | 2:54.72 | 70606 | 83727
7 | 18:36.28 | 3:24.61 | 83728 | 99088
8 | 22:01.14 | 2:51.25 | 99089 | 111938
9 | 24:52.39 | 3:29.62 | 111939 | 127675
10 | 28:22.26 | 3:06.70 | 127676 | 141695
11 | 31:29.21 | 3:09.43 | 141696 | 155913
12 | 34:38.64 | 3:03.54 | 155914 | 169692

Track 1

Filename C:\Documents and Settings\Administrator\Desktop\!Music\Thousand Foot Krutch - Phenomenon FLAC\01 - Phenomenon.wav

Pre-gap length 0:00:02.00

Peak level 97.6 %
Track quality 100.0 %
Test CRC C0698BE7
Copy CRC C0698BE7
Accurately ripped (confidence 32) [3C3701E6]
Copy OK

Track 2

Filename C:\Documents and Settings\Administrator\Desktop\!Music\Thousand Foot Krutch - Phenomenon FLAC\02 - Step to Me.wav

Pre-gap length 0:00:00.45

Peak level 97.6 %
Track quality 100.0 %
Test CRC 5DDC5DF9
Copy CRC 5DDC5DF9
Accurately ripped (confidence 30) [B0ABDB2A]
Copy OK

Track 3

Filename C:\Documents and Settings\Administrator\Desktop\!Music\Thousand Foot Krutch - Phenomenon FLAC\03 - Last Words.wav

Pre-gap length 0:00:00.05

Peak level 99.9 %
Track quality 100.0 %
Test CRC 48DF946C
Copy CRC 48DF946C
Accurately ripped (confidence 32) [8D9CCED7]
Copy OK

Track 4

Filename C:\Documents and Settings\Administrator\Desktop\!Music\Thousand Foot Krutch - Phenomenon FLAC\04 - This is a Call.wav

Pre-gap length 0:00:00.92

Peak level 69.1 %
Track quality 100.0 %
Test CRC 960D0F36
Copy CRC 960D0F36
Accurately ripped (confidence 31) [9D826C90]
Copy OK

Track 5

Filename C:\Documents and Settings\Administrator\Desktop\!Music\Thousand Foot Krutch - Phenomenon FLAC\05 - Rawkfist.wav

Pre-gap length 0:00:00.38

Peak level 97.7 %
Track quality 100.0 %
Test CRC 115B3E32
Copy CRC 115B3E32
Accurately ripped (confidence 31) [C5E3357E]
Copy OK

Track 6

Filename C:\Documents and Settings\Administrator\Desktop\!Music\Thousand Foot Krutch - Phenomenon FLAC\06 - Faith, Love and Happiness.wav

Pre-gap length 0:00:00.06

Peak level 91.1 %
Track quality 99.9 %
Test CRC B58FDE91
Copy CRC B58FDE91
Accurately ripped (confidence 30) [CBE21019]
Copy OK

Track 7

Filename C:\Documents and Settings\Administrator\Desktop\!Music\Thousand Foot Krutch - Phenomenon FLAC\07 - I Climb.wav

Pre-gap length 0:00:00.57

Peak level 98.2 %
Track quality 100.0 %
Test CRC 41457973
Copy CRC 41457973
Accurately ripped (confidence 29) [0C6DB75A]
Copy OK

Track 8

Filename C:\Documents and Settings\Administrator\Desktop\!Music\Thousand Foot Krutch - Phenomenon FLAC\08 - Quicken.wav

Pre-gap length 0:00:00.08

Peak level 100.0 %
Track quality 99.9 %
Test CRC 609AEF0F
Copy CRC 609AEF0F
Accurately ripped (confidence 24) [7BCC1689]
Copy OK

Track 9

Filename C:\Documents and Settings\Administrator\Desktop\!Music\Thousand Foot Krutch - Phenomenon FLAC\09 - New Design.wav

Pre-gap length 0:00:00.14

Peak level 97.6 %
Track quality 99.9 %
Test CRC EC4641AD
Copy CRC EC4641AD
Accurately ripped (confidence 25) [FFC8F5D5]
Copy OK

Track 10

Filename C:\Documents and Settings\Administrator\Desktop\!Music\Thousand Foot Krutch - Phenomenon FLAC\10 - Bounce.wav

Pre-gap length 0:00:00.46

Peak level 88.0 %
Track quality 99.9 %
Test CRC BC1E46D3
Copy CRC BC1E46D3
Accurately ripped (confidence 31) [EE52DFA5]
Copy OK

Track 11

Filename C:\Documents and Settings\Administrator\Desktop\!Music\Thousand Foot Krutch - Phenomenon FLAC\11 - Ordinary.wav

Pre-gap length 0:00:00.13

Peak level 97.6 %
Track quality 99.9 %
Test CRC 55009AA6
Copy CRC 55009AA6
Accurately ripped (confidence 31) [C720542E]
Copy OK

Track 12

Filename C:\Documents and Settings\Administrator\Desktop\!Music\Thousand Foot Krutch - Phenomenon FLAC\12 - Break the Silence.wav

Pre-gap length 0:00:00.12

Peak level 97.6 %
Track quality 100.0 %
Test CRC F66CCF69
Copy CRC F66CCF69
Accurately ripped (confidence 31) [23C46C3E]
Copy OK

All tracks accurately ripped

No errors occurred

End of status report
1.) Absolute - 3:19
2.) Slow Bleed - 3:14
3.) The Art Of Breaking - 3:20
4.) Stranger - 3:49
5.) Hurt - 4:45
6.) Hand Grenade - 4:13
7.) Move - 3:29
8.) Hit The Floor - 3:48
9.) Go - 3:47
10.) Make Me A Believer - 2:49
11.) Breathe You In - 4:19
Exact Audio Copy V0.99 prebeta 4 from 23. January 2008

EAC extraction logfile from 26. August 2009, 19:09

Thousand Foot Krutch / The Art Of Breaking

Used drive : PLEXTOR DVDR PX-760A Adapter: 0 ID: 1

Read mode : Secure
Utilize accurate stream : Yes
Defeat audio cache : Yes
Make use of C2 pointers : No

Read offset correction : 30
Overread into Lead-In and Lead-Out : Yes
Fill up missing offset samples with silence : Yes
Delete leading and trailing silent blocks : No
Null samples used in CRC calculations : Yes
Used interface : Native Win32 interface for Win NT & 2000
Gap handling : Appended to previous track

Used output format : User Defined Encoder
Selected bitrate : 768 kBit/s
Quality : High
Add ID3 tag : No
Command line compressor : C:\Program Files\Exact Audio Copy\FLAC\FLAC.EXE
Additional command line options : --best -T "ARTIST=%a" -T "TITLE=%t" -T "ALBUM=%g" -T "DATE=%y" -T "TRACKNUMBER=%n" -T "GENRE=%m" %s

TOC of the extracted CD

Track | Start | Length | Start sector | End sector
---------------------------------------------------------
1 | 0:00.00 | 3:19.37 | 0 | 14961
2 | 3:19.37 | 3:14.24 | 14962 | 29535
3 | 6:33.61 | 3:19.46 | 29536 | 44506
4 | 9:53.32 | 3:48.62 | 44507 | 61668
5 | 13:42.19 | 4:44.49 | 61669 | 83017
6 | 18:26.68 | 4:13.24 | 83018 | 102016
7 | 22:40.17 | 3:28.52 | 102017 | 117668
8 | 26:08.69 | 3:48.31 | 117669 | 134799
9 | 29:57.25 | 3:46.46 | 134800 | 151795
10 | 33:43.71 | 2:49.28 | 151796 | 164498
11 | 36:33.24 | 4:19.33 | 164499 | 183956
12 | 43:24.57 | 0:21.47 | 195357 | 196978

Track 1

Filename C:\TempRip\Thousand Foot Krutch - (2005) - The Art Of Breaking [FLAC]\01-Absolute.wav

Pre-gap length 0:00:02.00

Peak level 100.0 %
Track quality 100.0 %
Test CRC 9CE59630
Copy CRC 9CE59630
Accurately ripped (confidence 25) [F8FAA2F5]
Copy OK

Track 2

Filename C:\TempRip\Thousand Foot Krutch - (2005) - The Art Of Breaking [FLAC]\02-Slow Bleed.wav

Peak level 100.0 %
Track quality 100.0 %
Test CRC 7906CCDC
Copy CRC 7906CCDC
Accurately ripped (confidence 25) [0C705B8A]
Copy OK

Track 3

Filename C:\TempRip\Thousand Foot Krutch - (2005) - The Art Of Breaking [FLAC]\03-The Art Of Breaking.wav

Peak level 100.0 %
Track quality 100.0 %
Test CRC 5B68DFE1
Copy CRC 5B68DFE1
Accurately ripped (confidence 25) [DE07B097]
Copy OK

Track 4

Filename C:\TempRip\Thousand Foot Krutch - (2005) - The Art Of Breaking [FLAC]\04-Stranger.wav

Peak level 100.0 %
Track quality 100.0 %
Test CRC 464A4870
Copy CRC 464A4870
Accurately ripped (confidence 25) [8DCD412C]
Copy OK

Track 5

Filename C:\TempRip\Thousand Foot Krutch - (2005) - The Art Of Breaking [FLAC]\05-Hurt.wav

Peak level 100.0 %
Track quality 100.0 %
Test CRC 9771A19E
Copy CRC 9771A19E
Accurately ripped (confidence 25) [C4D47E47]
Copy OK

Track 6

Filename C:\TempRip\Thousand Foot Krutch - (2005) - The Art Of Breaking [FLAC]\06-Hand Grenade.wav

Peak level 100.0 %
Track quality 100.0 %
Test CRC 152773F3
Copy CRC 152773F3
Accurately ripped (confidence 25) [DF0AA059]
Copy OK

Track 7

Filename C:\TempRip\Thousand Foot Krutch - (2005) - The Art Of Breaking [FLAC]\07-Move.wav

Peak level 100.0 %
Track quality 100.0 %
Test CRC F12FA5C9
Copy CRC F12FA5C9
Accurately ripped (confidence 25) [D2C13CD0]
Copy OK

Track 8

Filename C:\TempRip\Thousand Foot Krutch - (2005) - The Art Of Breaking [FLAC]\08-Hit The Floor.wav

Peak level 100.0 %
Track quality 100.0 %
Test CRC E96F80B9
Copy CRC E96F80B9
Accurately ripped (confidence 25) [4472EE7A]
Copy OK

Track 9

Filename C:\TempRip\Thousand Foot Krutch - (2005) - The Art Of Breaking [FLAC]\09-Go.wav

Peak level 100.0 %
Track quality 100.0 %
Test CRC 3FBED197
Copy CRC 3FBED197
Accurately ripped (confidence 24) [92DEF40D]
Copy OK

Track 10

Filename C:\TempRip\Thousand Foot Krutch - (2005) - The Art Of Breaking [FLAC]\10-Make Me A Believer.wav

Peak level 100.0 %
Track quality 100.0 %
Test CRC 76238532
Copy CRC 76238532
Accurately ripped (confidence 24) [64AB59EC]
Copy OK

Track 11

Filename C:\TempRip\Thousand Foot Krutch - (2005) - The Art Of Breaking [FLAC]\11-Breathe You In.wav

Peak level 100.0 %
Track quality 100.0 %
Test CRC 24FAD681
Copy CRC 24FAD681
Accurately ripped (confidence 25) [F30EC909]
Copy OK

All tracks accurately ripped

No errors occurred

End of status report
1.) The Flame In All Of Us - 3:22
2.) Falls Apart - 3:35
3.) New Drug - 2:44
4.) What Do We Know? - 3:19
5.) Favorite Disease - 3:47
6.) My Home - 3:41
7.) My Own Enemy - 3:01
8.) Learn To Breathe - 4:08
9.) Inhuman - 4:06
10.) Broken Wing - 3:55
11.) The Safest Place - 4:08
12.) Wish You Well - 7:44
EAC extraction logfile from 19. September 2007, 0:24 for CD
Thousand Foot Krutch / The Flame In All Of Us

Used drive : _NEC DVD+-RW ND-3530A Adapter: 0 ID: 0
Read mode : Secure with NO C2, accurate stream, disable cache
Read offset correction : 48
Overread into Lead-In and Lead-Out : No

Used output format : C:\Program Files\Exact Audio Copy\flac.exe (User Defined Encoder)
320 kBit/s
Additional command line options : -8 -b 4096 -V -T "artist=%a" -T "title=%t" -T "album=%g" -T "date=%y" -T "tracknumber=%n" -T "genre=%m" %s --sector-align

Other options :
Fill up missing offset samples with silence : Yes
Delete leading and trailing silent blocks : No
Installed external ASPI interface

Track 1
Filename C:\Documents and Settings\jonny\My Documents\My Music\Thousand Foot Krutch\The Flame In All Of Us\01 - The Flame In All Of Us.wav

Pre-gap length 0:00:02.00

Peak level 98.8 %
Track quality 100.0 %
Test CRC 6AF30B0E
Copy CRC 6AF30B0E
Copy OK

Track 2
Filename C:\Documents and Settings\jonny\My Documents\My Music\Thousand Foot Krutch\The Flame In All Of Us\02 - Falls Apart.wav

Peak level 98.8 %
Track quality 100.0 %
Test CRC 0507F662
Copy CRC 0507F662
Copy OK

Track 3
Filename C:\Documents and Settings\jonny\My Documents\My Music\Thousand Foot Krutch\The Flame In All Of Us\03 - New Drug.wav

Peak level 98.8 %
Track quality 100.0 %
Test CRC 98ED83D3
Copy CRC 98ED83D3
Copy OK

Track 4
Filename C:\Documents and Settings\jonny\My Documents\My Music\Thousand Foot Krutch\The Flame In All Of Us\04 - What Do We Know .wav

Peak level 98.8 %
Track quality 100.0 %
Test CRC 68F8D34F
Copy CRC 68F8D34F
Copy OK

Track 5
Filename C:\Documents and Settings\jonny\My Documents\My Music\Thousand Foot Krutch\The Flame In All Of Us\05 - Favorite Disease.wav

Peak level 100.0 %
Track quality 100.0 %
Test CRC 3DFA6089
Copy CRC 3DFA6089
Copy OK

Track 6
Filename C:\Documents and Settings\jonny\My Documents\My Music\Thousand Foot Krutch\The Flame In All Of Us\06 - My Home.wav

Peak level 98.8 %
Track quality 100.0 %
Test CRC 937FB08A
Copy CRC 937FB08A
Copy OK

Track 7
Filename C:\Documents and Settings\jonny\My Documents\My Music\Thousand Foot Krutch\The Flame In All Of Us\07 - My Own Enemy.wav

Peak level 98.8 %
Track quality 99.9 %
Test CRC D9809320
Copy CRC D9809320
Copy OK

Track 8
Filename C:\Documents and Settings\jonny\My Documents\My Music\Thousand Foot Krutch\The Flame In All Of Us\08 - Learn To Breathe.wav

Peak level 98.8 %
Track quality 99.9 %
Test CRC 70B32D3D
Copy CRC 70B32D3D
Copy OK

Track 9
Filename C:\Documents and Settings\jonny\My Documents\My Music\Thousand Foot Krutch\The Flame In All Of Us\09 - Inhuman.wav

Peak level 98.8 %
Track quality 100.0 %
Test CRC BAFF7DA4
Copy CRC BAFF7DA4
Copy OK

Track 10
Filename C:\Documents and Settings\jonny\My Documents\My Music\Thousand Foot Krutch\The Flame In All Of Us\10 - Broken Wing.wav

Peak level 98.8 %
Track quality 100.0 %
Test CRC 08DC1715
Copy CRC 08DC1715
Copy OK

Track 11
Filename C:\Documents and Settings\jonny\My Documents\My Music\Thousand Foot Krutch\The Flame In All Of Us\11 - The Safest Place.wav

Peak level 98.8 %
Track quality 100.0 %
Test CRC D1F64300
Copy CRC D1F64300
Copy OK

Track 12
Filename C:\Documents and Settings\jonny\My Documents\My Music\Thousand Foot Krutch\The Flame In All Of Us\12 - Wish You Well.wav

Peak level 98.8 %
Track quality 100.0 %
Test CRC 3069828B
Copy CRC 3069828B
Copy OK

No errors occured

End of status report
1.) The Invitation - 0:59
2.) Welcome To The Masquerade - 3:41
3.) Fire It Up - 3:07
4.) Bring Me To Life - 3:36
5.) E For Extinction - 3:52
6.) Watching Over Me - 4:18
7.) The Part That Hurts The Most (Is Me) - 3:59
8.) Scream - 3:26
9.) Look Away - 4:01
10.) Foward Motion - 3:54
11.) Outta Control - 3:27
12.) Smack Down - 3:21
13.) Already Home - 4:30
Exact Audio Copy V0.99 prebeta 5 from 4. May 2009

Отчёт EAC об извлечении, выполненном 17. сентября 2009, 23:55

Thousand Foot Krutch / Welcome To The Masquerade

Дисковод: Optiarc DVD RW AD-7170A Adapter: 0 ID: 0

Режим чтения : Достоверность
Использование точного потока : Да
Отключение кэша аудио : Да
Использование указателей C2 : Нет

Коррекция смещения при чтении : 48
Способность читать области Lead-in и Lead-out : Нет
Заполнение пропущенных сэмплов тишиной : Да
Удаление блоков с тишиной в начале и конце : Нет
При вычислениях CRC использовались нулевые сэмплы : Да
Интерфейс : Установленный внешний ASPI-интерфейс
Обработка зазоров : Добавлено к предыдущему треку

Выходной формат : Пользовательский кодировщик
Выбранный битрейт : 320 kBit/s
Качество : Высокий
Добавление ID3-тэга : Нет
Утилита сжатия : C:\Program Files\Exact Audio Copy\Flac\flac.exe
Дополнительные параметры : -V -8 -T "artist=%a" -T "title=%t" -T "album=%g" -T "date=%y" -T "tracknumber=%n" -T "genre=%m" %s

TOC извлечённого CD

Трек | Старт | Длительность | Начальный сектор | Конечный сектор
---------------------------------------------------------------------
1 | 0:00.00 | 0:59.06 | 0 | 4430
2 | 0:59.06 | 3:41.51 | 4431 | 21056
3 | 4:40.57 | 3:07.68 | 21057 | 35149
4 | 7:48.50 | 3:36.52 | 35150 | 51401
5 | 11:25.27 | 3:52.02 | 51402 | 68803
6 | 15:17.29 | 4:18.52 | 68804 | 88205
7 | 19:36.06 | 3:59.37 | 88206 | 106167
8 | 23:35.43 | 3:26.42 | 106168 | 121659
9 | 27:02.10 | 4:01.50 | 121660 | 139784
10 | 31:03.60 | 3:54.50 | 139785 | 157384
11 | 34:58.35 | 3:27.64 | 157385 | 172973
12 | 38:26.24 | 3:21.73 | 172974 | 188121
13 | 41:48.22 | 4:30.52 | 188122 | 208423

Трек 1

Имя файла E:\muSIC\Alternative\Thousand Foot Krutch\[2009] Welcome To The Masquerade [FLAC]\01 - The Invitation (Intro).wav

Длина предзазора 0:00:02.00

Пиковый уровень 100.0 %

Качество трека 99.8 %
CRC теста EC33689F
CRC копии EC33689F
Копирование... OK

Трек 2

Имя файла E:\muSIC\Alternative\Thousand Foot Krutch\[2009] Welcome To The Masquerade [FLAC]\02 - Welcome To The Masquerade.wav

Пиковый уровень 100.0 %
Качество трека 100.0 %
CRC теста 9E72214D
CRC копии 9E72214D
Копирование... OK

Трек 3

Имя файла E:\muSIC\Alternative\Thousand Foot Krutch\[2009] Welcome To The Masquerade [FLAC]\03 - Fire It Up.wav

Пиковый уровень 100.0 %
Качество трека 100.0 %
CRC теста 8405F4DD
CRC копии 8405F4DD
Копирование... OK

Трек 4

Имя файла E:\muSIC\Alternative\Thousand Foot Krutch\[2009] Welcome To The Masquerade [FLAC]\04 - Bring Me To Life.wav

Пиковый уровень 100.0 %
Качество трека 100.0 %
CRC теста 5A5E7808
CRC копии 5A5E7808
Копирование... OK

Трек 5

Имя файла E:\muSIC\Alternative\Thousand Foot Krutch\[2009] Welcome To The Masquerade [FLAC]\05 - E For Extinction.wav

Пиковый уровень 100.0 %
Качество трека 100.0 %
CRC теста 4696E493
CRC копии 4696E493
Копирование... OK

Трек 6

Имя файла E:\muSIC\Alternative\Thousand Foot Krutch\[2009] Welcome To The Masquerade [FLAC]\06 - Watching Over Me.wav

Пиковый уровень 100.0 %
Качество трека 100.0 %
CRC теста 01E77B60
CRC копии 01E77B60
Копирование... OK

Трек 7

Имя файла E:\muSIC\Alternative\Thousand Foot Krutch\[2009] Welcome To The Masquerade [FLAC]\07 - The Part That Hurts The Most (Is Me).wav

Пиковый уровень 100.0 %
Качество трека 100.0 %
CRC теста B5F39694
CRC копии B5F39694
Копирование... OK

Трек 8

Имя файла E:\muSIC\Alternative\Thousand Foot Krutch\[2009] Welcome To The Masquerade [FLAC]\08 - Scream.wav

Пиковый уровень 100.0 %
Качество трека 99.9 %
CRC теста 9C6CD974
CRC копии 9C6CD974
Копирование... OK

Трек 9

Имя файла E:\muSIC\Alternative\Thousand Foot Krutch\[2009] Welcome To The Masquerade [FLAC]\09 - Look Away.wav

Пиковый уровень 100.0 %
Качество трека 100.0 %
CRC теста F1B8245F
CRC копии F1B8245F
Копирование... OK

Трек 10

Имя файла E:\muSIC\Alternative\Thousand Foot Krutch\[2009] Welcome To The Masquerade [FLAC]\10 - Forward Motion.wav

Пиковый уровень 100.0 %
Качество трека 100.0 %
CRC теста 30A5B3F4
CRC копии 30A5B3F4
Копирование... OK

Трек 11

Имя файла E:\muSIC\Alternative\Thousand Foot Krutch\[2009] Welcome To The Masquerade [FLAC]\11 - Outta Control.wav

Пиковый уровень 100.0 %
Качество трека 99.9 %
CRC теста 7FB899AD
CRC копии 7FB899AD
Копирование... OK

Трек 12

Имя файла E:\muSIC\Alternative\Thousand Foot Krutch\[2009] Welcome To The Masquerade [FLAC]\12 - Smack Down.wav

Пиковый уровень 100.0 %
Качество трека 100.0 %
CRC теста 270DAEA7
CRC копии 270DAEA7
Копирование... OK

Трек 13

Имя файла E:\muSIC\Alternative\Thousand Foot Krutch\[2009] Welcome To The Masquerade [FLAC]\13 - Already Home.wav

Пиковый уровень 100.0 %
Качество трека 100.0 %
CRC теста 3BB942FD
CRC копии 3BB942FD
Копирование... OK

Ошибок не произошло

Конец отчёта
1.)The Introduction - 1:01
2.)We Are - 3:18
3.)Light Up the Sky - 4:00
4.)The End Is Where We Begin - 3:45
5.)Let the Sparks Fly - 4:06
6.)I Get Wicked - 3:33
7.)Be Somebody - 3:42
8.)This Is a Warning (Intro) - 0:47
9.)Courtesy Call - 3:57
10.)War of Change - 3:52
11.)Down - 3:27
12.)All I Need to Know - 4:10
13.)Fly on the Wall - 4:03
14.)So Far Gone - 4:29
15.)Outroduction - 0:38
Exact Audio Copy V1.0 beta 3 from 29. August 2011

EAC extraction logfile from 9. April 2012, 23:43

Thousand Foot Krutch / The End Is Where We Begin

Used drive : Optiarc DVD RW AD-7585H Adapter: 0 ID: 2

Read mode : Secure
Utilize accurate stream : Yes
Defeat audio cache : Yes
Make use of C2 pointers : No

Read offset correction : 6
Overread into Lead-In and Lead-Out : No
Fill up missing offset samples with silence : Yes
Delete leading and trailing silent blocks : No
Null samples used in CRC calculations : Yes
Used interface : Native Win32 interface for Win NT & 2000
Gap handling : Appended to previous track

Used output format : User Defined Encoder
Selected bitrate : 1024 kBit/s
Quality : High
Add ID3 tag : No
Command line compressor : C:\Program Files (x86)\FLAC\flac.exe
Additional command line options : -8 -V -T "ARTIST=%artist%" -T "TITLE=%title%" -T "ALBUM=%albumtitle%" -T "DATE=%year%" -T "TRACKNUMBER=%tracknr%" -T "GENRE=%genre%" -T "PERFORMER=%albuminterpret%" -T "COMPOSER=%composer%" %haslyrics%--tag-from-file=LYRICS="%lyricsfile%"%haslyrics% -T "ALBUMARTIST=%albumartist%" -T "DISCNUMBER=%cdnumber%" -T "TOTALDISCS=%totalcds%" -T "TOTALTRACKS=%numtracks%" -T "COMMENT=%comment%" %source% -o %dest%

TOC of the extracted CD

Track | Start | Length | Start sector | End sector
---------------------------------------------------------
1 | 0:00.00 | 1:00.58 | 0 | 4557
2 | 1:00.58 | 3:18.08 | 4558 | 19415
3 | 4:18.66 | 3:59.47 | 19416 | 37387
4 | 8:18.38 | 3:44.64 | 37388 | 54251
5 | 12:03.27 | 4:06.57 | 54252 | 72758
6 | 16:10.09 | 3:32.62 | 72759 | 88720
7 | 19:42.71 | 3:42.33 | 88721 | 105403
8 | 23:25.29 | 0:46.63 | 105404 | 108916
9 | 24:12.17 | 3:56.68 | 108917 | 126684
10 | 28:09.10 | 3:51.50 | 126685 | 144059
11 | 32:00.60 | 3:27.18 | 144060 | 159602
12 | 35:28.03 | 4:09.38 | 159603 | 178315
13 | 39:37.41 | 4:02.58 | 178316 | 196523
14 | 43:40.24 | 4:29.23 | 196524 | 216721
15 | 48:09.47 | 0:37.59 | 216722 | 219555

Track 1

Filename C:\EAC RIPS\Thousand Foot Krutch - The End Is Where We Begin - 2012 FLAC\01 - The Introduction.wav

Pre-gap length 0:00:02.00

Peak level 96.6 %
Extraction speed 1.7 X
Track quality 100.0 %
Test CRC 8FF0B475
Copy CRC 8FF0B475
Track not present in AccurateRip database
Copy OK

Track 2

Filename C:\EAC RIPS\Thousand Foot Krutch - The End Is Where We Begin - 2012 FLAC\02 - We Are.wav

Peak level 96.6 %
Extraction speed 2.6 X
Track quality 100.0 %
Test CRC EE2A7D3B
Copy CRC EE2A7D3B
Track not present in AccurateRip database
Copy OK

Track 3

Filename C:\EAC RIPS\Thousand Foot Krutch - The End Is Where We Begin - 2012 FLAC\03 - Light Up The Sky.wav

Peak level 96.6 %
Extraction speed 2.9 X
Track quality 100.0 %
Test CRC FF070DC5
Copy CRC FF070DC5
Track not present in AccurateRip database
Copy OK

Track 4

Filename C:\EAC RIPS\Thousand Foot Krutch - The End Is Where We Begin - 2012 FLAC\04 - The End Is Where We Begin.wav

Peak level 96.6 %
Extraction speed 3.1 X
Track quality 100.0 %
Test CRC 5EE195A7
Copy CRC 5EE195A7
Track not present in AccurateRip database
Copy OK

Track 5

Filename C:\EAC RIPS\Thousand Foot Krutch - The End Is Where We Begin - 2012 FLAC\05 - Let The Sparks Fly.wav

Peak level 96.6 %
Extraction speed 3.4 X
Track quality 100.0 %
Test CRC 95D2537F
Copy CRC 95D2537F
Track not present in AccurateRip database
Copy OK

Track 6

Filename C:\EAC RIPS\Thousand Foot Krutch - The End Is Where We Begin - 2012 FLAC\06 - I Get Wicked.wav

Peak level 96.6 %
Extraction speed 2.9 X
Track quality 99.9 %
Test CRC A5382EDB
Copy CRC A5382EDB
Track not present in AccurateRip database
Copy OK

Track 7

Filename C:\EAC RIPS\Thousand Foot Krutch - The End Is Where We Begin - 2012 FLAC\07 - Be Somebody.wav

Peak level 96.6 %
Extraction speed 3.1 X
Track quality 99.9 %
Test CRC B407EC3E
Copy CRC B407EC3E
Track not present in AccurateRip database
Copy OK

Track 8

Filename C:\EAC RIPS\Thousand Foot Krutch - The End Is Where We Begin - 2012 FLAC\08 - This Is A Warning.wav

Peak level 96.6 %
Extraction speed 1.5 X
Track quality 99.7 %
Test CRC 7747B259
Copy CRC 7747B259
Track not present in AccurateRip database
Copy OK

Track 9

Filename C:\EAC RIPS\Thousand Foot Krutch - The End Is Where We Begin - 2012 FLAC\09 - Courtesy Call.wav

Peak level 96.6 %
Extraction speed 4.0 X
Track quality 100.0 %
Test CRC 0ADA297A
Copy CRC 0ADA297A
Track not present in AccurateRip database
Copy OK

Track 10

Filename C:\EAC RIPS\Thousand Foot Krutch - The End Is Where We Begin - 2012 FLAC\10 - War Of Change.wav

Peak level 96.6 %
Extraction speed 4.1 X
Track quality 100.0 %
Test CRC 92DBC612
Copy CRC 92DBC612
Track not present in AccurateRip database
Copy OK

Track 11

Filename C:\EAC RIPS\Thousand Foot Krutch - The End Is Where We Begin - 2012 FLAC\11 - Down.wav

Peak level 96.6 %
Extraction speed 4.2 X
Track quality 100.0 %
Test CRC D99D13BB
Copy CRC D99D13BB
Track not present in AccurateRip database
Copy OK

Track 12

Filename C:\EAC RIPS\Thousand Foot Krutch - The End Is Where We Begin - 2012 FLAC\12 - All I Need To Know.wav

Peak level 96.6 %
Extraction speed 4.4 X
Track quality 100.0 %
Test CRC 3649F9C7
Copy CRC 3649F9C7
Track not present in AccurateRip database
Copy OK

Track 13

Filename C:\EAC RIPS\Thousand Foot Krutch - The End Is Where We Begin - 2012 FLAC\13 - Fly On The Wall.wav

Peak level 96.6 %
Extraction speed 4.6 X
Track quality 100.0 %
Test CRC B7D4AB54
Copy CRC B7D4AB54
Track not present in AccurateRip database
Copy OK

Track 14

Filename C:\EAC RIPS\Thousand Foot Krutch - The End Is Where We Begin - 2012 FLAC\14 - So Far Gone.wav

Peak level 96.6 %
Extraction speed 4.8 X
Track quality 100.0 %
Test CRC AE70B845
Copy CRC AE70B845
Track not present in AccurateRip database
Copy OK

Track 15

Filename C:\EAC RIPS\Thousand Foot Krutch - The End Is Where We Begin - 2012 FLAC\15 - Outroduction.wav

Peak level 96.5 %
Extraction speed 2.7 X
Track quality 100.0 %
Test CRC 4E45944D
Copy CRC 4E45944D
Track not present in AccurateRip database
Copy OK

None of the tracks are present in the AccurateRip database

No errors occurred

End of status report

---- CUETools DB Plugin V2.1.3

[CTDB TOCID: VleKOgruLeXGLRXMeBhL6IL.Ngc-] disk not present in database, Submit result: VleKOgruLeXGLRXMeBhL6IL.Ngc- has been uploaded

==== Log checksum 68F17AED51DE0567E37BCC84A0530348D08279A50214E416D0758E8D60E4DBAA ====

  
fooCDtect - foobar2000 + auCDtect, baralgin.

auCDtect: CD records authenticity detector, version 0.8.2Copyright (c) 2004 Oleg Berngardt. All rights reserved.Copyright (c) 2004 Alexander Djourik. All rights reserved.

mode: 0=========================================== Track: Thousand Foot Krutch - That's What People Do Quality: CDDA 100%=========================================== Track: Thousand Foot Krutch - Set it Off Quality: CDDA 100%=========================================== Track: Thousand Foot Krutch - Phenomenon Quality: CDDA 100%=========================================== Track: Thousand Foot Krutch - The Art Of Breaking Quality: CDDA 100%=========================================== Track: Thousand Foot Krutch - The Flame In All Of Us Quality: CDDA 100%=========================================== Track: Thousand Foot Krutch - Welcome To The Masquerade Quality: CDDA 100%===========================================
  
fooCDtect - foobar2000 + auCDtect, baralgin.

auCDtect: CD records authenticity detector, version 0.8.2Copyright (c) 2004 Oleg Berngardt. All rights reserved.Copyright (c) 2004 Alexander Djourik. All rights reserved.

mode: 0

=========================================== Track: The Introduction Quality: CDDA 100%=========================================== Track: We Are Quality: CDDA 100%=========================================== Track: Light Up The Sky Quality: CDDA 100%=========================================== Track: The End Is Where We Begin Quality: CDDA 100%=========================================== Track: Let The Sparks Fly Quality: CDDA 100%=========================================== Track: I Get Wicked Quality: CDDA 100%=========================================== Track: Be Somebody Quality: CDDA 100%=========================================== Track: This Is A Warning Quality: CDDA 99%=========================================== Track: Courtesy Call Quality: CDDA 100%=========================================== Track: War Of Change Quality: CDDA 100%=========================================== Track: Down Quality: CDDA 100%=========================================== Track: All I Need To Know Quality: CDDA 100%=========================================== Track: Fly On The Wall Quality: CDDA 100%=========================================== Track: So Far Gone Quality: CDDA 100%=========================================== Track: Outroduction Quality: CDDA 99%===========================================



Трекер:  [ 06-Май-2012 14:38 ]

  

Скачать .torrent

Размер .torrent файла 18 KB


Размер: 2.28 GB
Хэш (hash) релиза: 9fe2e4ea199664e801d09446ba308e1d9e281bf3

Еще никто не оставлял запись к записи скачать торрент Thousand Foot Krutch - Discography - 1998-2012 . Будь первым!

!Обратная связь