Скачать через торрент Judas Priest - Rocka Rolla, 1974 бесплатно русская версия torrent активатор

Если у вас наблюдаются проблемы со скриншотами, переходом по ссылками, скачиванием торрентов - проблемы в блокировщике рекламы AdBlock. #хорошегоДня!


Статистика раздачи
Размер:  224 MB   |    Зарегистрирован:  5 лет 5 месяцев   |    .torrent скачан:  27 раз   |   
Раздают:  1  
   
Загрузка...
 
Автор Сообщение

Galfimbul

avatar Galfimbul


Judas Priest - Rocka Rolla

Жанр: Hard Rock / Heavy Metal
Год выпуска диска: 1995
Производитель диска: Transluxe (US)
Кат.№: 57801-2
Тип издания: ремастер
Рипнуто: foobar2000+iTunes
Аудио кодек: ALAC
Битрейт аудио: lossless
Продолжительность: 38:48
Тексты: вшиты

Треклист:
01. One For The Road 4:32
02. Rocka Rolla 3:00
03. Winter-Deep Freeze-Winter Retreat-Cheater 9:27
04. Never Satisfied 4:48
05. Run Of The Mill 8:31
06. Dying To Meet You 6:13
07. Caviar And Meths 2:03
  
Exact Audio Copy V0.99 prebeta 5 from 4. May 2009

Отчёт EAC об извлечении, выполненном 1. марта 2010, 9:35

Judas Priest / Rocka Rolla

Дисковод: HL-DT-STDVDRAM GE20NU10 Adapter: 3 ID: 0

Режим чтения : ДостоверностьИспользование точного потока : ДаОтключение кэша аудио : ДаИспользование указателей C2 : Нет

Коррекция смещения при чтении : 667Способность читать области Lead-in и Lead-out : НетЗаполнение пропущенных сэмплов тишиной : ДаУдаление блоков с тишиной в начале и конце : НетПри вычислениях CRC использовались нулевые сэмплы : ДаИнтерфейс : Встроенный Win32-интерфейс для Win NT/2000

Выходной формат : Пользовательский кодировщикВыбранный битрейт : 1024 kBit/sКачество : ВысокийДобавление ID3-тэга : НетУтилита сжатия : C:\Program Files\wavpack.exeДополнительные параметры : -hm -w "Year=%y" -w "Genre=%m" %s %d

TOC извлечённого CD

Трек | Старт | Длительность | Начальный сектор | Конечный сектор --------------------------------------------------------------------- 1 | 0:00.50 | 4:33.55 | 50 | 20579 2 | 4:34.30 | 3:01.20 | 20580 | 34174 3 | 7:35.50 | 9:29.00 | 34175 | 76849 4 | 17:04.50 | 4:49.40 | 76850 | 98564 5 | 21:54.15 | 8:33.15 | 98565 | 137054 6 | 30:27.30 | 6:18.30 | 137055 | 165434 7 | 36:45.60 | 2:02.12 | 165435 | 174596

Характеристики диапазона извлечения и сообщения об ошибках

Выбранный диапазон

Имя файла C:\...\Judas Priest - Rocka Rolla.wav

Пиковый уровень 92.1 % Качество диапазона 100.0 % CRC теста 99B3655C CRC копии 99B3655C Копирование... OK

Ошибок не произошло

AccurateRip: сводка

Трек 1 нет в базе данныхТрек 2 нет в базе данныхТрек 3 нет в базе данныхТрек 4 нет в базе данныхТрек 5 нет в базе данныхТрек 6 нет в базе данныхТрек 7 нет в базе данных

Ни одного трека нет в базе AccurateRip

Конец отчёта


Трекер:  [ 06-Май-2012 14:38 ]

  

Скачать .torrent

Размер .torrent файла 18 KB


Размер: 224 MB
Хэш (hash) релиза: bb10e0bef9bd188a860d51ee82177a28f3f7cfcc

Еще никто не оставлял запись к записи скачать торрент Judas Priest - Rocka Rolla, 1974 . Будь первым!

!Обратная связь