Скачать через торрент Piotr Klujeu - My Life - 2012 бесплатно русская версия torrent активатор

Если у вас наблюдаются проблемы со скриншотами, переходом по ссылками, скачиванием торрентов - проблемы в блокировщике рекламы AdBlock. #хорошегоДня!


Статистика раздачи
Размер:  237 MB   |    Зарегистрирован:  5 лет 5 месяцев   |    .torrent скачан:  35 раз   |   
Раздают:  1  
   
Загрузка...
 
Автор Сообщение

Galfimbul

avatar Galfimbul


Piotr Klujeu - My Life

Год: 2012
Страна: Беларусь
Страна-производитель диска: Беларусь
Жанр: Авторская песня
Тип издания: оригинал
Наличие сканов в содержимом раздачи: да
Продолжительность: 00:26:42
Тексты: отсутствуют
Кодек: ALAC
Программа-риповщик : foobar2000 + iTunes (lossless)
Битрейт: lossless
Треклист:
01. My Life
02. I Will See You In The Sky
03. Каханне
04. Your Smile
05. New Way
06. Come Together
07. Ты Любіла
  
Exact Audio Copy V0.99 prebeta 5 from 4. May 2009

Отчёт EAC об извлечении, выполненном 1. апреля 2012, 10:35

Piotr Klujeu / My Life

Дисковод: _NEC DVD_RW ND-3550A Adapter: 0 ID: 0

Режим чтения : ДостоверностьИспользование точного потока : ДаОтключение кэша аудио : ДаИспользование указателей C2 : Нет

Коррекция смещения при чтении : 48Способность читать области Lead-in и Lead-out : НетЗаполнение пропущенных сэмплов тишиной : ДаУдаление блоков с тишиной в начале и конце : НетПри вычислениях CRC использовались нулевые сэмплы : ДаИнтерфейс : Установленный внешний ASPI-интерфейс

Выходной формат : Внутренние WAV-операцииФормат сэмплов : 44.100 Гц; 16 бит; стерео

TOC извлечённого CD

Трек | Старт | Длительность | Начальный сектор | Конечный сектор --------------------------------------------------------------------- 1 | 0:00.00 | 3:36.74 | 0 | 16273 2 | 3:36.74 | 3:39.34 | 16274 | 32732 3 | 7:16.33 | 4:05.00 | 32733 | 51107 4 | 11:21.33 | 3:57.51 | 51108 | 68933 5 | 15:19.09 | 2:58.38 | 68934 | 82321 6 | 18:17.47 | 4:12.28 | 82322 | 101249 7 | 22:30.00 | 4:12.44 | 101250 | 120193

Характеристики диапазона извлечения и сообщения об ошибках

Выбранный диапазон

Имя файла F:\Music lossless\Piotr Klujeu - My Life.wav

Пиковый уровень 93.9 % Качество диапазона 99.9 % CRC теста 0B13610C CRC копии 0B13610C Копирование... OK

Ошибок не произошло

AccurateRip: сводка

Трек 1 нет в базе данныхТрек 2 нет в базе данныхТрек 3 нет в базе данныхТрек 4 нет в базе данныхТрек 5 нет в базе данныхТрек 6 нет в базе данныхТрек 7 нет в базе данных

Ни одного трека нет в базе AccurateRip

Конец отчёта
  
Started at: четверг, 19. 04. 2012. - 10:29.581 file found

1 -===- F:\Music lossless\Piotr Klujeu - My Life lossless\Piotr Klujeu - My Life.flac Extracted successfullyConclusion: this track is CDDA with probability 100% Tempfile successfully deleted.

Finished at: четверг, 19. 04. 2012. - 10:31.28 (operation time: 0:01.30)



Трекер:  [ 06-Май-2012 14:38 ]

  

Скачать .torrent

Размер .torrent файла 19 KB


Размер: 237 MB
Хэш (hash) релиза: f4ec20c7074444046985458ddc58c5d8158e3b84

Торренты, похожие на Piotr Klujeu - My Life - 2012 скачать торрент

Форум Название Автор Размер S L Добавлен
Apple Mobile Device Software ·· (Авторская песня) Piotr Klujeu (Пётр Клюеў) - Дискография ("My Life", "Ты любіла") - 2012 (оригинал) ALAC, lossless Galfimbul 546242480521 MB 0 0 1357848540

23:09

10-Янв-13

Еще никто не оставлял запись к записи скачать торрент Piotr Klujeu - My Life - 2012 . Будь первым!

!Обратная связь