..."/> ...">

Скачать через торрент VA - Вивальди. Гении классической музыки - 2012 бесплатно русская версия torrent активатор

Если у вас наблюдаются проблемы со скриншотами, переходом по ссылками, скачиванием торрентов - проблемы в блокировщике рекламы AdBlock. #хорошегоДня!


Статистика раздачи
Размер:  392 MB   |    Зарегистрирован:  5 лет 5 месяцев   |    .torrent скачан:  98 раз   |   
Раздают:  1  
   
Загрузка...
 
Автор Сообщение

Galfimbul

avatar Galfimbul


VA - Вивальди. Гении классической музыки

Год: 2012
Страна: Италия
Страна-производитель диска: Беларусь
Жанр: Classical
Тип издания: сборник
Издатель (лейбл): ВИГМА
Номер по каталогу: 3240
Наличие сканов в содержимом раздачи: да
Продолжительность: 00:47:26
Тексты: не требуются
Кодек: ALAC
Программа-риповщик : foobar2000 + iTunes (lossless)
Битрейт: lossless
Источник: Собственный CD
Треклист:
01. Времена года 'Весна' Allegro"
02. Времена года 'Весна' Largo
03. Времена года 'Весна' Danza Pastorale
04. Времена года 'Лето' Allegro Non Molto
05. Времена года 'Лето' Adajio
06. Времена года 'Лето' Presto
07. Времена года 'Осень' Allegro
08. Времена года 'Осень' Adajio Molto
09. Времена года 'Осень' Allegro
10. Времена года 'Зима' Allegro Non Molto
11. Времена года 'Зима' Largo
12. Времена года 'Зима' Allegro
13. Соната для скрипки A, Op. 2 - 13
14. Соната для скрипки A, Op. 2 - 14
15. Соната для скрипки A, Op. 2 - 15
16. Соната для скрипки A, Op. 2 - 16
  
Exact Audio Copy V0.99 prebeta 5 from 4. May 2009

Отчёт EAC об извлечении, выполненном 19. апреля 2012, 14:54

А. Вивальди / Вивальди. Гении классической музыки

Дисковод: _NEC DVD_RW ND-3550A Adapter: 0 ID: 0

Режим чтения : ДостоверностьИспользование точного потока : ДаОтключение кэша аудио : ДаИспользование указателей C2 : Нет

Коррекция смещения при чтении : 48Способность читать области Lead-in и Lead-out : НетЗаполнение пропущенных сэмплов тишиной : ДаУдаление блоков с тишиной в начале и конце : НетПри вычислениях CRC использовались нулевые сэмплы : ДаИнтерфейс : Установленный внешний ASPI-интерфейс

Выходной формат : Внутренние WAV-операцииФормат сэмплов : 44.100 Гц; 16 бит; стерео

TOC извлечённого CD

Трек | Старт | Длительность | Начальный сектор | Конечный сектор --------------------------------------------------------------------- 1 | 0:00.00 | 3:46.57 | 0 | 17006 2 | 3:46.57 | 2:40.64 | 17007 | 29070 3 | 6:27.46 | 4:30.54 | 29071 | 49374 4 | 10:58.25 | 5:12.00 | 49375 | 72774 5 | 16:10.25 | 2:07.45 | 72775 | 82344 6 | 18:17.70 | 2:29.07 | 82345 | 93526 7 | 20:47.02 | 5:37.39 | 93527 | 118840 8 | 26:24.41 | 2:14.27 | 118841 | 128917 9 | 28:38.68 | 3:28.03 | 128918 | 144520 10 | 32:06.71 | 3:32.13 | 144521 | 160433 11 | 35:39.09 | 2:03.63 | 160434 | 169721 12 | 37:42.72 | 3:16.72 | 169722 | 184493 13 | 40:59.69 | 1:05.61 | 184494 | 189429 14 | 42:05.55 | 1:47.58 | 189430 | 197512 15 | 43:53.38 | 1:15.39 | 197513 | 203176 16 | 45:09.02 | 2:17.36 | 203177 | 213487

Характеристики диапазона извлечения и сообщения об ошибках

Выбранный диапазон

Имя файла F:\Music lossless\А. Вивальди - Вивальди. Гении классической музыки.wav

Пиковый уровень 99.8 % Качество диапазона 100.0 % CRC теста 58D72DC1 CRC копии 58D72DC1 Копирование... OK

Ошибок не произошло

AccurateRip: сводка

Трек 1 нет в базе данныхТрек 2 нет в базе данныхТрек 3 нет в базе данныхТрек 4 нет в базе данныхТрек 5 нет в базе данныхТрек 6 нет в базе данныхТрек 7 нет в базе данныхТрек 8 нет в базе данныхТрек 9 нет в базе данныхТрек 10 нет в базе данныхТрек 11 нет в базе данныхТрек 12 нет в базе данныхТрек 13 нет в базе данныхТрек 14 нет в базе данныхТрек 15 нет в базе данныхТрек 16 нет в базе данных

Ни одного трека нет в базе AccurateRip

Конец отчёта
  
Started at: четверг, 19. 04. 2012. - 15:07.441 file found

1 -===- F:\Music lossless\Вивальди. Гении классической музыки\А. Вивальди - Вивальди. Гении классической музыки.flac Extracted successfully Conclusion: this track is CDDA with probability 100% Tempfile successfully deleted.

Finished at: четверг, 19. 04. 2012. - 15:11.30 (operation time: 0:03.45)


Трекер:  [ 06-Май-2012 14:39 ]

  

Скачать .torrent

Размер .torrent файла 17 KB


Размер: 392 MB
Хэш (hash) релиза: c280d10b2948a62adf3ad1e407ccd09ad8e83533

Еще никто не оставлял запись к записи скачать торрент VA - Вивальди. Гении классической музыки - 2012 . Будь первым!

!Обратная связь