Скачать через торрент VA - Чайковский. Гении классической музыки - 2012 бесплатно русская версия torrent активатор

Если у вас наблюдаются проблемы со скриншотами, переходом по ссылками, скачиванием торрентов - проблемы в блокировщике рекламы AdBlock. #хорошегоДня!


Статистика раздачи
Размер:  469 MB   |    Зарегистрирован:  5 лет 5 месяцев   |    .torrent скачан:  79 раз   |   
Раздают:  1  
   
Загрузка...
 
Автор Сообщение

Galfimbul

avatar Galfimbul


VA - Чайковский. Гении классической музыки

Год: 2012
Страна: Россия
Страна-производитель диска: Беларусь
Жанр: Classical
Тип издания: сборник
Издатель (лейбл): ВИГМА
Номер по каталогу: 3386
Наличие сканов в содержимом раздачи: да
Тексты: не требуются
Кодек: ALAC
Программа-риповщик : foobar2000 + iTunes (lossless)
Битрейт: lossless
Источник: Собственный CD
Треклист:
01. Лебединое озеро: Вальс
02. Щелкунчик: Вальс цветов
03. Грустная песенка
04. Лебединое озеро: Тема лебедя
05. Симфония №5: Вальс
06. Спящая красавица: Adajio: Pas d'action
07. Только одинокое сердце Op.6, №6
08. Щелкунчик: Танец пастушков
09. Щелкунчик: Танец феи драже
10. Ноктюрн Op.19, №4
11. Серенада для струнного оркестра: Pezzo in forma di Sonatina
12. Симфония №4: Allegro con fuco
13. Струнный квартет №1: Andante cantabile
14. Июнь - Баркаролла
  
Exact Audio Copy V0.99 prebeta 5 from 4. May 2009

Отчёт EAC об извлечении, выполненном 21. апреля 2012, 8:47

П.И. Чайковский / Чайковский. Гении классической музыки

Дисковод: _NEC DVD_RW ND-3550A Adapter: 0 ID: 0

Режим чтения : ДостоверностьИспользование точного потока : ДаОтключение кэша аудио : ДаИспользование указателей C2 : Нет

Коррекция смещения при чтении : 48Способность читать области Lead-in и Lead-out : НетЗаполнение пропущенных сэмплов тишиной : ДаУдаление блоков с тишиной в начале и конце : НетПри вычислениях CRC использовались нулевые сэмплы : ДаИнтерфейс : Установленный внешний ASPI-интерфейс

Выходной формат : Внутренние WAV-операцииФормат сэмплов : 44.100 Гц; 16 бит; стерео

TOC извлечённого CD

Трек | Старт | Длительность | Начальный сектор | Конечный сектор --------------------------------------------------------------------- 1 | 0:00.00 | 6:45.42 | 0 | 30416 2 | 6:45.42 | 6:46.42 | 30417 | 60908 3 | 13:32.09 | 3:19.13 | 60909 | 75846 4 | 16:51.22 | 2:20.36 | 75847 | 86382 5 | 19:11.58 | 5:43.27 | 86383 | 112134 6 | 24:55.10 | 5:29.27 | 112135 | 136836 7 | 30:24.37 | 4:06.21 | 136837 | 155307 8 | 34:30.58 | 2:26.55 | 155308 | 166312 9 | 36:57.38 | 1:51.39 | 166313 | 174676 10 | 38:49.02 | 4:53.09 | 174677 | 196660 11 | 43:42.11 | 9:35.57 | 196661 | 239842 12 | 53:17.68 | 9:20.03 | 239843 | 281845 13 | 62:37.71 | 6:37.61 | 281846 | 311681 14 | 69:15.57 | 4:51.09 | 311682 | 333515

Характеристики диапазона извлечения и сообщения об ошибках

Выбранный диапазон

Имя файла F:\Music lossless\П.И. Чайковский - Чайковский. Гении классической музыки.wav

Пиковый уровень 96.6 % Качество диапазона 99.9 % CRC теста 710C483F CRC копии 710C483F Копирование... OK

Ошибок не произошло

AccurateRip: сводка

Трек 1 нет в базе данныхТрек 2 нет в базе данныхТрек 3 нет в базе данныхТрек 4 нет в базе данныхТрек 5 нет в базе данныхТрек 6 нет в базе данныхТрек 7 нет в базе данныхТрек 8 нет в базе данныхТрек 9 нет в базе данныхТрек 10 нет в базе данныхТрек 11 нет в базе данныхТрек 12 нет в базе данныхТрек 13 нет в базе данныхТрек 14 нет в базе данных

Ни одного трека нет в базе AccurateRip

Конец отчёта
  
Started at: суббота, 21. 04. 2012. - 9:00.361 file found

1 -===- F:\Music lossless\Чайковский. Гении классической музыки\П.И. Чайковский - Чайковский. Гении классической музыки.flac Extracted successfully Conclusion: this track is CDDA with probability 100% Tempfile successfully deleted.

Finished at: суббота, 21. 04. 2012. - 9:06.23 (operation time: 0:05.47)


Трекер:  [ 06-Май-2012 14:39 ]

  

Скачать .torrent

Размер .torrent файла 20 KB


Размер: 469 MB
Хэш (hash) релиза: 4dbffd1f7233a7eec95f408967803adde3c2037a

Еще никто не оставлял запись к записи скачать торрент VA - Чайковский. Гении классической музыки - 2012 . Будь первым!

!Обратная связь