Скачать через торрент ADELE - 19 - 2008 бесплатно русская версия torrent активатор

Если у вас наблюдаются проблемы со скриншотами, переходом по ссылками, скачиванием торрентов - проблемы в блокировщике рекламы AdBlock. #хорошегоДня!


Статистика раздачи
Размер:  128 MB   |    Зарегистрирован:  5 лет 5 месяцев   |    .torrent скачан:  44 раза   |   
Раздают:  1  
   
Загрузка...
 
Автор Сообщение

L


ADELE / 19

Жанр: Pop
Страна: UK
Год издания: 2008
Издатель (лейбл): ℗ 2008 XL
Композитор: Adele Adkins, Eg White, Sacha Skarbek, etc.
Аудио кодек: AAC
Тип рипа: tracks
Битрейт аудио: 256 kbps
Продолжительность: 46:39
Источник: http://itunes.apple.com/au/album/19/id269864356
Тексты: отсутствуют
Наличие сканов в содержимом раздачи: Digital Booklet - 19

Треклист:
1. Daydreamer
2. Best for Last
3. Chasing Pavements
4. Cold Shoulder
5. Crazy for You
6. Melt My Heart to Stone
7. First Love
8. Right As Rain
9. Make You Feel My Love
10. My Same
11. Tired
12. Hometown Glory
13. Melt My Heart to Stone (Video)
Параметры видео

Качество: WEB-DL
Продолжительность: 00:02:59
Формат: MPEG-4 (контейнер m4v)
Видео: H.264, 640 x 464 px, 25.000 fps, ~1714 kbps, без анаморфа
Аудио: Английский (AAC Stereo, 256 Кбит/сек, 44,1 КГц)
Общее
Полное имя : C:\Users\Ромашка\Desktop\База музыки с блога\ADELE\ADELE - 19\13 Melt My Heart to Stone.m4v
Формат : MPEG-4
Идентификатор кодека : M4V
Размер файла : 38,6 Мбайт
Продолжительность : 2 м. 59 с.
Общий поток : 1810 Кбит/сек
Название фильма : Melt My Heart to Stone
Альбом : 19
Альбом/Исполнитель : ADELE
Трек/Положение : 13
Трек/Всего : 0
Исполнитель : ADELE
Жанр : Pop
Дата записи : UTC 2008-06-10 07:00:00
Дата кодирования : UTC 2008-07-30 02:52:28
Дата пометки : UTC 2008-07-30 03:04:25
Библиотека кодирования : Apple QuickTime
Обложка : Yes
apID : <a href="mailto:tempiden1@gmail.com" class="postLink">tempiden1@gmail.com</a>
cnID : 282374082
rtng : 0
atID : 262816582
plID : 282374043
geID : 1614
sfID : 143441
akID : 0
stik : 6
purd : 2009-12-29 01:59:08
iTunMOVI : / / / / asset-info / / file-size / 40513087 / flavor / 6:640x480LC-256 / / /

Видео
Идентификатор : 1
Формат : AVC
Формат/Информация : Advanced Video Codec
Профиль формата : <a href="mailto:Baseline@L3.0" class="postLink">Baseline@L3.0</a>
Параметр CABAC формата : Нет
Параметр ReFrames формата : 1 кадр
Идентификатор кодека : avc1
Идентификатор кодека/Информация : Advanced Video Coding
Продолжительность : 2 м. 59 с.
Битрейт : 1504 Кбит/сек
Ширина : 640 пикселей
Высота : 464 пикселя
Соотношение сторон : 1,379
Режим частоты кадров : Постоянный
Частота кадров : 29,970 кадров/сек
Цветовое пространство : YUV
Субдискретизация насыщенности : 4:2:0
Битовая глубина : 8 бит
Тип развёртки : Прогрессивная
Бит/(Пиксели*Кадры) : 0.169
Размер потока : 32,1 Мбайт (83%)
Язык : English
Дата кодирования : UTC 2008-07-30 03:04:22
Дата пометки : UTC 2008-07-30 03:04:25
Основные цвета : BT.601-6 525, BT.1358 525, BT.1700 NTSC, SMPTE 170M
Характеристики трансфера : BT.709-5, BT.1361
Коэффициенты матрицы : BT.601-6 525, BT.1358 525, BT.1700 NTSC, SMPTE 170M

Аудио
Идентификатор : 2
Формат : AAC
Формат/Информация : Advanced Audio Codec
Профиль формата : LC
Идентификатор кодека : 40
Продолжительность : 2 м. 59 с.
Продолжительность оригинала : 2 м. 59 с.
Вид битрейта : Постоянный
Битрейт : 256 Кбит/сек
Каналы : 2 канала
Расположение каналов : Front: L R
Частота : 44,1 КГц
Метод сжатия : С потерями
Размер потока : 5,36 Мбайт (14%)
Размер потока оригинала : 5,36 Мбайт (14%)
Язык : English
Дата кодирования : UTC 2008-07-30 03:04:22
Дата пометки : UTC 2008-07-30 03:04:25

Меню
Идентификатор : 3
Язык : English
Дата кодирования : UTC 2008-07-30 03:04:25
Дата пометки : UTC 2008-07-30 03:04:25



Адель Лори Блу Эдкинс (англ. Adele Laurie Blue Adkins, род. 5 мая 1988 года в Энфилде, северный Лондон), более известная как Адель — английская певица и автор песен, исполняющая поп-джаз/соул, объявленная в 2007 году «новой Эми Уайнхаус», но уже спустя год признанная продолжательницей традиций Этты Джеймс и Дасти Спрингфилд.
Дебютный альбом Адели, 19, выпущенный 28 января 2008 года, уже через неделю после выхода возглавил UK Albums Chart, а впоследствии получил «платиновый» статус (то есть разошёлся тиражом свыше 300 тысяч экземпляров) и был номинирован на Mercury Prize 2008 года. Адель удостоена восьми премий Grammy в различных номинациях.
«19» — дебютный студийный альбом британской певицы и автора песен Адели, был выпущен 28 января 2008 года, спустя неделю после выхода сингла «Hometown Glory».
Диск был хорошо встречен критиками и дебютировал с первой строчки в британском чарте. По состоянию на сентябрь 2011 года альбом разошёлся тиражом более 4 млн копий по всему миру.


Трекер:  [ 08-Май-2012 16:05 ]

  

Скачать .torrent

Размер .torrent файла 21 KB


Размер: 128 MB
Хэш (hash) релиза: e0ee11ec81520a1b9e7ec9ddfdca9470ccfc8ea0

Еще никто не оставлял запись к записи скачать торрент ADELE - 19 - 2008 . Будь первым!

!Обратная связь