Скачать через торрент Lady GaGa - iTunes Discography бесплатно русская версия torrent активатор

Если у вас наблюдаются проблемы со скриншотами, переходом по ссылками, скачиванием торрентов - проблемы в блокировщике рекламы AdBlock. #хорошегоДня!


Статистика раздачи
Размер:  2.45 GB   |    Зарегистрирован:  5 лет 5 месяцев   |    .torrent скачан:  57 раз   |   
Раздают:  1  
   
Загрузка...
 
Автор Сообщение

L


Lady GaGa / iTunes Discography

Жанр: Pop
Страна: US, UK, Germany, Sweden, France, Norway, Canada
Год издания: 2008-2011
Издатель (лейбл): Def Jam Recordings, Interscope Records, etc.
Аудио кодек: AAC
Тип рипа: tracks
Битрейт аудио: 256 kbps
Продолжительность: 20:16:30
Тексты: частично присутствуют
Наличие сканов в содержимом раздачи: Digital Booklets
Продолжительность: 01:20:44
Источник: http://itunes.apple.com/us/album/born-this-way-the-remix/id476648319

Треклист:
1. Born This Way (Zedd Remix)
2. Judas (Goldfrapp Remix)
3. The Edge of Glory (Foster The People Remix)
4. Yoü and I (Wild Beasts Remix)
5. Marry the Night (The Weeknd & Illangelo Remix)
6. Black Jesus + Amen Fashion (Michael Woods Remix)
7. Bloody Mary (The Horrors Remix)
8. Scheiße (Guena LG Club Remix)
9. Americano (Gregori Klosman Remix)
10. Electric Chapel (Two Door Cinema Club Remix)
11. Yoü and I (Metronomy Remix)
12. Judas (Hurts Remix)
13. Born This Way (Twin Shadow Remix)
14. The Edge of Glory (Sultan & Ned Shepard Remix)
15. Judas (Royksopp's 30 Pieces Remix)
Продолжительность: 01:45:43
Источник: http://itunes.apple.com/gb/album/born-this-way-bonus-track/id438662372

Треклист:
Disc 1
1. Marry the Night
2. Born This Way
3. Government Hooker
4. Judas
5. Americano
6. Hair
7. Scheiße
8. Bloody Mary
9. Black Jesus + Amen Fashion
10. Bad Kids
11. Fashion of His Love
12. Highway Unicorn (Road to Love)
13. Heavy Metal Lover
14. Electric Chapel
15. The Queen
16. Yoü And I
17. The Edge of Glory
Disc 2
1. Born This Way (The Country Road Version)
2. Judas (DJ White Shadow Remix)
3. Marry The Night (Zedd Remix)
4. Scheiße (DJ White Shadow Mugler)
5. Fashion of His Love (Fernando Garibay Remix)
6. Born This Way (Jost & Naaf Remix)
Продолжительность: 00:54:00
Источник: http://itunes.apple.com/us/album/the-fame/id294084085

Треклист:
1. Just Dance
2. LoveGame
3. Paparazzi
4. Poker Face
5. Eh, Eh (Nothing Else I Can Say)
6. Beautiful, Dirty, Rich
7. The Fame
8. Money Honey
9. Starstruck
10. Boys Boys Boys
11. Paper Gangsta
12. Brown Eyes
13. I Like It Rough
14. Summerboy
15. Disco Heaven
Продолжительность: 01:33:02
Источник: http://itunes.apple.com/us/album/fame-monster-deluxe-version/id340054428

Треклист:
1. Bad Romance
2. Alejandro
3. Monster
4. Speechless
5. Dance In the Dark
6. Telephone (feat. Beyoncé)
7. So Happy I Could Die
8. Teeth
9. Just Dance (feat. Colby O'Donis)
10. LoveGame
11. Paparazzi
12. Poker Face
13. Eh, Eh (Nothing Else I Can Say)
14. Beautiful, Dirty, Rich
15. The Fame
16. Money Honey
17. Starstruck (feat. Space Cowboy & Flo Rida)
18. Boys Boys Boys
19. Paper Gangsta
20. Brown Eyes
21. I Like It Rough
22. Summerboy
23. Disco Heaven
24. Bad Romance (Starsmith Remix)
Продолжительность: 00:39:04
Источник: http://itunes.apple.com/us/album/the-fame-monster/id350699166

Треклист:
1. Bad Romance
2. Alejandro
3. Monster
4. Speechless
5. Dance In the Dark
6. Telephone (feat. Beyoncé)
7. So Happy I Could Die
8. Teeth
9. Bad Romance [Starsmith Remix]
Продолжительность: 01:16:57
Источник: http://itunes.apple.com/de/album/the-remix/id366813981

Треклист:
1. Just Dance (Richard Vission Remix)
2. Poker Face (LLG vs. GLG Radio Mix)
3. LoveGame (Chew Fu Ghettohouse Fix)
4. Eh, Eh (Nothing Else I Can Say) [FrankMusik "Cut Snare Edit" Remix]
5. Paparazzi (Stuart Price Remix)
6. Boys Boys Boys (Manhattan Clique)
7. The Fame (Glam As You Remix) [Radio Edit Version]
8. Bad Romance (Starsmith Remix)
9. Telephone (Passion Pit Remix)
10. Alejandro (The Sound of Arrows Remix)
11. Dance In the Dark (Monarchy 'Stylites' Remix)
12. Just Dance (Deewaan Remix) [feat. Ashking, Wedis, Lush and Young Thoro]
13. LoveGame (Robots to Mars Remix)
14. Eh, Eh (Nothing Else I Can Say) [Pet Shop Boys Radio Mix]
15. Poker Face (Live At The Cherrytree House) [Piano & Voice Version]
16. Bad Romance (Grum Remix)
17. Telephone (Alphabeat Remix Edit)
Продолжительность: 00:14:21
Источник: http://itunes.apple.com/us/album/a-very-gaga-holiday-live-ep/id481529282

Треклист:
1. White Christmas
2. Orange Colored Sky
3. Yoü and I
4. The Edge of Glory
Продолжительность: 00:11:09
Источник: данный контент был доступен временно

Треклист:
1. Alejandro (Radio Edit)
2. Alejandro (Dave Aude Radio Remix)
3. Alejandro (Bimbo Jones Radio Edit Remix)
Продолжительность: 00:19:54
Источник: http://itunes.apple.com/us/album/bad-romance-the-remixes-ep/id345754804

Треклист:
1. Bad Romance (Chew Fu H1N1 Fix)
2. Bad Romance (Kaskade Remix)
3. Bad Romance (Bimbo Jones Radio Remix)
4. Bad Romance (Skrillex Remix)
Продолжительность: 00:24:15
Источник: http://itunes.apple.com/us/album/bad-romance-remixes-pt.-2/id353181297

Треклист:
1. Bad Romance (Grum Remix)
2. Bad Romance (Richard Vission Remix)
3. Bad Romance (Hercules & Love Affair Remix)
4. Bad Romance (Hercules & Love Affair Dub Remix)
5. Bad Romance (DJ Dan Remix)
Продолжительность: 00:24:13
Источник: http://itunes.apple.com/gb/album/judas-remix-pt.-2-ep/id440281568

Треклист:
1. Judas (Royksopp's European Imbecile Mix)
2. Judas (John Dahlback Remix)
3. Judas (Chris Lake Remix)
4. Judas (R3HAB Remix)
5. Judas (Mirrors Une Autre Monde Mix–Jour)
Продолжительность: 00:22:32
Источник: http://itunes.apple.com/us/album/bad-romance-remixes-pt.-2/id353181297

Треклист:
1. Judas (Goldfrapp Remix)
2. Judas (Hurts Remix)
3. Judas (Mirrors Une Autre Monde Mix – Nuit)
4. Judas (Guena LG Club Remix)
Продолжительность: 00:18:51
Источник: http://itunes.apple.com/gb/album/just-dance-ep/id300970914

Треклист:
1. Just Dance
2. Just Dance (Remix) [With Kardinal Offishall]
3. Just Dance (Glam As You Mix By Guena LG) [Club Mix]
4. Just Dance (Video)
Параметры видео

Качество: WEB-DL
Продолжительность: 00:04:06
Формат: MPEG-4 (контейнер m4v)
Видео: H.264, 640 x 360 px (16:9), 25.000 fps, ~1743 kbps, без анаморфа
Аудио: Английский (AAC Stereo, 256 Кбит/сек, 44,1 КГц)
Общее
CompleteName : C:\Users\Ромашка\Desktop\База музыки с блога\Lady GaGa\Lady GaGa - Just Dance - EP\04 Just Dance.m4v
Format : MPEG-4
CodecID : M4V
FileSize/String : 53,5 Мбайт
Duration/String : 4 м. 6 с.
OverallBitRate/String : 1824 Кбит/сек
Movie : Just Dance
Album : Just Dance - EP
Album/Performer : Lady GaGa
Track/Position : 4
Track/Position_Total : 0
Performer : Lady GaGa
Genre : Dance
Recorded_Date : 2010
Encoded_Date : UTC 2008-12-24 04:51:19
Tagged_Date : UTC 2008-12-24 04:59:23
Encoded_Library/String : Apple QuickTime
Copyright : ℗ (C) 2008 Interscope Records
Cover : Yes
apID : <a href="mailto:cameron.erner@yahoo.com" class="postLink">cameron.erner@yahoo.com</a>
cnID : 300970978
rtng : 0
atID : 277293880
plID : 300970914
geID : 1617
sfID : 143444
akID : 0
stik : 6
purd : 2010-04-16 03:47:56
iTunMOVI : / / / / asset-info / / file-size / 56129109 / flavor / 6:640x480LC-256 / screen-format / widescreen / / /

Видео
ID/String : 1
Format : AVC
Format/Info : Advanced Video Codec
Format_Profile : <a href="mailto:Baseline@L3.0" class="postLink">Baseline@L3.0</a>
Format_Settings_CABAC/String : Нет
Format_Settings_RefFrames/String : 1 кадр
CodecID : avc1
CodecID/Info : Advanced Video Coding
Duration/String : 4 м. 6 с.
BitRate/String : 1535 Кбит/сек
Width/String : 640 пикселей
Height/String : 360 пикселей
DisplayAspectRatio/String : 16:9
FrameRate_Mode/String : Постоянный
FrameRate/String : 25,000 кадров/сек
ColorSpace : YUV
ChromaSubsampling : 4:2:0
BitDepth/String : 8 бит
ScanType/String : Прогрессивная
Bits-(Pixel*Frame) : 0.266
StreamSize/String : 45,0 Мбайт (84%)
Language/String : English
Encoded_Date : UTC 2008-12-24 04:59:12
Tagged_Date : UTC 2008-12-24 04:59:23
Основные цвета : BT.601-6 525, BT.1358 525, BT.1700 NTSC, SMPTE 170M
Характеристики трансфера : BT.709-5, BT.1361
Коэффициенты матрицы : BT.601-6 525, BT.1358 525, BT.1700 NTSC, SMPTE 170M

Аудио
ID/String : 2
Format : AAC
Format/Info : Advanced Audio Codec
Format_Profile : LC
CodecID : 40
Duration/String : 4 м. 6 с.
Source_Duration/String : 4 м. 6 с.
BitRate_Mode/String : Постоянный
BitRate/String : 256 Кбит/сек
Channel(s)/String : 2 канала
ChannelPositions : Front: L R
SamplingRate/String : 44,1 КГц
Compression_Mode/String : С потерями
StreamSize/String : 7,35 Мбайт (14%)
Source_StreamSize/String : 7,35 Мбайт (14%)
Language/String : English
Encoded_Date : UTC 2008-12-24 04:59:12
Tagged_Date : UTC 2008-12-24 04:59:23

Меню
ID/String : 3
Language/String : English
Дата кодирования : UTC 2008-12-24 04:59:23
Дата пометки : UTC 2008-12-24 04:59:23
Продолжительность: 00:24:47
Источник: http://itunes.apple.com/se/album/just-dance-remixes-feat.-colby/id282303452

Треклист:
1. Just Dance
2. Judas (John Dahlback Remix)
3. Just Dance (HCCR'S Bambossa Main Mix)
4. Just Dance (Richard Vission Remix)
5. Just Dance (Trevor Simpson Remix)
Продолжительность: 00:22:26
Источник: данный контент был доступен временно

Треклист:
1. LoveGame
2. LoveGame (Chew Fu Ghettohouse Fix)
3. LoveGame (Space Cowboy Remix)
4. LoveGame (Jody Den Broeder Club Mix)
5. LoveGame (Video)
Параметры видео

Качество: WEB-DL
Продолжительность: 00:03:44
Формат: MPEG-4 (контейнер m4v)
Видео: H.264, 640 x 352 px (16:9), 25.000 fps, ~1677 kbps, без анаморфа
Аудио: Английский (AAC Stereo, 256 Кбит/сек, 44,1 КГц)
Общее
Полное имя : C:\Users\Ромашка\Desktop\База музыки с блога\Lady GaGa\Lady GaGa - LoveGame - EP\05 LoveGame.m4v
Формат : MPEG-4
Идентификатор кодека : M4V
Размер файла : 47,0 Мбайт
Продолжительность : 3 м. 44 с.
Общий поток : 1761 Кбит/сек
Название фильма : LoveGame
Альбом : LoveGame - EP
Альбом/Исполнитель : Lady GaGa
Часть/Положение : 1
Часть/Всего : 1
Трек/Положение : 5
Трек/Всего : 5
Исполнитель : Lady GaGa
Жанр : Pop
Дата записи : 2010
Дата кодирования : UTC 2009-09-10 13:06:53
Дата пометки : UTC 2009-09-10 13:11:18
Библиотека кодирования : Apple QuickTime
Правообладатель : ℗ (C) 2009 Interscope Records
Обложка : Yes
apID : <a href="mailto:cameron.erner@yahoo.com" class="postLink">cameron.erner@yahoo.com</a>
cnID : 331138663
rtng : 0
atID : 277293880
plID : 331138418
geID : 1614
sfID : 143444
akID : 0
stik : 6
purd : 2010-04-16 03:47:56
iTunMOVI : / / / / asset-info / / file-size / 49313887 / flavor / 6:640x480LC-256 / screen-format / widescreen / / /

Видео
Идентификатор : 1
Формат : AVC
Формат/Информация : Advanced Video Codec
Профиль формата : <a href="mailto:Baseline@L3.0" class="postLink">Baseline@L3.0</a>
Параметр CABAC формата : Нет
Параметр ReFrames формата : 1 кадр
Идентификатор кодека : avc1
Идентификатор кодека/Информация : Advanced Video Coding
Продолжительность : 3 м. 44 с.
Битрейт : 1474 Кбит/сек
Ширина : 640 пикселей
Высота : 352 пикселя
Соотношение сторон : 16:9
Режим частоты кадров : Постоянный
Частота кадров : 25,000 кадров/сек
Цветовое пространство : YUV
Субдискретизация насыщенности : 4:2:0
Битовая глубина : 8 бит
Тип развёртки : Прогрессивная
Бит/(Пиксели*Кадры) : 0.262
Размер потока : 39,4 Мбайт (84%)
Язык : English
Дата кодирования : UTC 2009-09-10 13:11:13
Дата пометки : UTC 2009-09-10 13:11:18
Основные цвета : BT.601-6 525, BT.1358 525, BT.1700 NTSC, SMPTE 170M
Характеристики трансфера : BT.709-5, BT.1361
Коэффициенты матрицы : BT.601-6 525, BT.1358 525, BT.1700 NTSC, SMPTE 170M

Аудио
Идентификатор : 2
Формат : AAC
Формат/Информация : Advanced Audio Codec
Профиль формата : LC
Идентификатор кодека : 40
Продолжительность : 3 м. 44 с.
Продолжительность оригинала : 3 м. 44 с.
Вид битрейта : Постоянный
Битрейт : 243 Кбит/сек
Номинальный битрейт : 256 Кбит/сек
Каналы : 2 канала
Расположение каналов : Front: L R
Частота : 44,1 КГц
Метод сжатия : С потерями
Размер потока : 6,49 Мбайт (14%)
Размер потока оригинала : 6,49 Мбайт (14%)
Язык : English
Дата кодирования : UTC 2009-09-10 13:11:13
Дата пометки : UTC 2009-09-10 13:11:18

Меню
Идентификатор : 3
Язык : English
Дата кодирования : UTC 2009-09-10 13:11:17
Дата пометки : UTC 2009-09-10 13:11:18
Продолжительность: 00:13:03
Источник: http://itunes.apple.com/us/album/paparazzi-the-remixes-part/id332282212

Треклист:
1. Paparazzi (Chew Fu Ghettohouse Fix)
2. Paparazzi (Yuksek Remix)
3. Paparazzi (James Carameta Tabloid Remix)
Продолжительность: 00:16:38
Источник: http://itunes.apple.com/us/album/paparazzi-the-remixes-ep/id329504233

Треклист:
1. Paparazzi (Demolition Crew Remix)
2. Paparazzi (Moto Blanco Remix] [Radio Version]
3. Paparazzi (Stuart Price Remix)
4. Paparazzi (Filthy Dukes Remix)
Продолжительность: 00:16:05
Источник: данный контент был доступен временно

Треклист:
1. Poker Face
2. Poker Face (Tommy Sparks & The Fury Remix)
3. Poker Face (Dave Audé Remix)
Продолжительность: 00:08:46
Источник: данный контент был доступен временно

Треклист:
1. Poker Face (Piano & Voice Version) [Live]
2. Just Dance (Stripped Down Version) [Live]
3. Eh, Eh (Nothing Else I Can Say) [Piano & Human Beat Box Version] {Live}
Продолжительность: 00:44:59
Источник: http://itunes.apple.com/us/album/alejandro-the-remixes/id371776112

Треклист:
1. Alejandro [Afrojack Remix]
2. Alejandro [Rusko's Pupuseria Remix]
3. Alejandro [Dave Audé Remix]
4. Alejandro [Skrillex Remix]
5. Alejandro [Kim Fai Remix]
6. Alejandro [The Sound Of Arrows Remix]
7. Alejandro [Bimbo Jones Remix]
8. Alejandro [Kleerup Remix]
Продолжительность: 00:34:48
Источник: http://itunes.apple.com/us/album/born-this-way-the-remixes-pt.-2/id427058249

Треклист:
1. Born This Way (Michael Woods Remix)
2. Born This Way (Dada Life Remix)
3. Born This Way (Zedd Remix)
4. Born This Way (Grum Remix)
5. Born This Way (Bimbo Jones Club Remix)
6. Born This Way (Twin Shadow Remix)
Продолжительность: 00:31:17
Источник: http://itunes.apple.com/fr/album/eh-eh-nothing-else-i-can-say/id319676627

Треклист:
1. Eh, Eh (Nothing Else I Can Say)
2. Eh, Eh (Nothing Else I Can Say) [Pet Shop Boys Radio Mix]
3. Eh, Eh (Nothing Else I Can Say) [FrankMusik "Cut Snare Edit" Remix]
4. Eh, Eh (Nothing Else I Can Say) [Electric Piano and Human Beat Box Version]
5. Eh, Eh (Nothing Else I Can Say) [Mattafix Mix]
6. Eh, Eh (Nothing Else I Can Say) [Bollywood Remix]
7. Eh, Eh (Nothing Else I Can Say) [Random Soul Remix]
8. Eh, Eh (Nothing Else I Can Say) [Pet Shop Boys Extended Mix]
Продолжительность: 00:33:45
Источник: http://itunes.apple.com/de/album/lovegame-remixes-bonus-track/id322248645

Треклист:
1. LoveGame (Chew Fu Ghettohouse Fix)
2. LoveGame (Robots To Mars Remix)
3. LoveGame (Space Cowboy Remix)
4. LoveGame (Jody Den Broeder Club Mix)
5. LoveGame (Dave Aude Club Mix)
6. LoveGame (Chester French Remix)
7. LoveGame
Продолжительность: 01:02:24
Источник: http://itunes.apple.com/us/album/marry-the-night-the-remixes/id487725679

Треклист:
1. Marry the Night (Zedd Remix)
2. Marry the Night (Sander Van Doorn Remix)
3. Marry the Night (Afrojack Remix)
4. Marry the Night (John Dahlback Remix)
5. Marry the Night (Sidney Samson Remix)
6. Marry the Night (R3hab Remix)
7. Marry the Night (Lazy Rich Remix)
8. Marry the Night (Dimitri Vegas & Like Mike Remix)
9. Marry the Night (Quintino Remix)
10. Marry the Night (Danny Verde Remix)
Продолжительность: 00:38:27
Источник: http://itunes.apple.com/us/album/the-edge-of-glory-the-remixes/id449009896

Треклист:
1. The Edge of Glory (Sultan & Ned Shepard Remix)
2. The Edge of Glory (Funkagenda Remix)
3. The Edge of Glory (Bare Noize Remix)
4. The Edge of Glory (Porter Robinson Remix)
5. The Edge of Glory (Cahill Club Mix)
6. The Edge of Glory (Foster The People Remix)
Продолжительность: 00:41:41
Источник: http://itunes.apple.com/gb/album/you-and-i-the-remixes/id465304616

Треклист:
1. Yoü and I (Wild Beasts Remix)
2. Yoü and I (Mark Taylor Remix)
3. Yoü and I (10 Kings Remix)
4. Yoü and I (ATB Remix)
5. Yoü and I (Metronomy Remix)
6. Yoü and I (Danny Verde Remix)
7. Yoü and I (Hector Fonseca Remix)
Продолжительность: 00:54:06
Источник: http://itunes.apple.com/us/album/telephone-the-remixes/id358639933

Треклист:
1. Telephone (Alphabeat Extended Remix)
2. Telephone (Crookers Vocal Remix)
3. Telephone (DJ Dan Extended Vocal Remix)
4. Telephone (DJ Dan Vocal Remix)
5. Telephone (Doctor Rosen Rosen Remix)
6. Telephone (Electrolightz Remix)
7. Telephone (Kaskade Extended Remix)
8. Telephone (Ming Extended Remix)
9. Telephone (Passion Pit Remix)
10. Telephone (Tom Neville's Ear Ringer Remix)
Продолжительность: 00:04:55
Источник: http://itunes.apple.com/fr/album/bad-romance-single/id336771537

Треклист:
1. Bad Romance
Продолжительность: 00:02:52
Источник: сингл был доступен временно

Треклист:
1. Beautiful Dirty Rich
Продолжительность: 00:04:20
Источник: http://itunes.apple.com/fr/album/born-this-way-single/id419447610

Треклист:
1. Born This Way
Продолжительность: 00:04:21
Источник: сингл был доступен временно

Треклист:
1. Born This Way (The Country Road Version)
Продолжительность: 00:16:48
Источник: http://itunes.apple.com/gb/album/born-this-way-remixes-pt./id423894977

Треклист:
1. Born This Way (LA Riots Remix)
2. Born This Way (Chew Fu Born to Fix Remix)
3. Born This Way (DJ White Shadow Remix)
Продолжительность: 00:06:36
Источник: сингл был доступен временно

Треклист:
1. Boys Boys Boys (Manhattan Clique)
Продолжительность: 00:02:22
Источник: http://itunes.apple.com/us/album/christmas-tree-feat.-space/id306730625

Треклист:
1. Christmas Tree (feat. Space Cowboy)
Продолжительность: 00:05:08
Источник: http://itunes.apple.com/gb/album/hair-single/id438169401

Треклист:
1. Hair
Продолжительность: 00:04:10
Источник: http://itunes.apple.com/no/album/judas-single/id432505481

Треклист:
1. Judas
Продолжительность: 00:05:32
Источник: http://itunes.apple.com/us/album/judas-thomas-gold-remix-single/id438611234

Треклист:
1. Judas (Thomas Gold Remix)
Продолжительность: 00:05:59
Источник: сингл был доступен временно

Треклист:
1. Love Game / Poker Face (Medley - Live At MMVA 09)
Продолжительность: 00:05:21
Источник: http://itunes.apple.com/ca/album/lovegame-chew-fu-ghettohouse/id320558102

Треклист:
1. LoveGame (Chew Fu Ghettohouse Fix) [feat. Marilyn Manson]
Продолжительность: 00:04:25
Источник: сингл был доступен временно

Треклист:
1. Marry the Night
Продолжительность: 00:08:48
Источник: сингл был доступен временно

Треклист:
1. Paparazzi
2. Paparazzi (Filthy Dukes Remix)
Продолжительность: 00:04:28
Источник: сингл был доступен временно

Треклист:
1. Paparazzi (James Carameta Tabloid Remix)
Продолжительность: 00:08:35
Источник: сингл был доступен временно

Треклист:
1. Poker Face
2. Just Dance (Robots to Mars Mix)
Продолжительность: 00:13:16
Источник: http://itunes.apple.com/ca/album/poker-face-speechless-your/id353672026

Треклист:
1. Poker Face / Speechless / Your Song (feat. Elton John) [Live from the 52nd Annual Grammy Awards]
2. Poker Face / Speechless / Your Song (feat. Elton John) [Live from the 52nd Annual Grammy Awards] {Video}
Параметры видео

Качество: WEB-DL
Продолжительность: 00:06:39
Формат: MPEG-4 (контейнер m4v)
Видео: H.264, 640 x 352 px (16:9), 25.000 fps, ~1790 kbps, без анаморфа
Аудио: Английский (AAC Stereo, 256 Кбит/сек, 44,1 КГц)
Общее
Полное имя : C:\Users\Ромашка\Desktop\База музыки с блога\Lady GaGa\Lady GaGa - Poker Face Speechless Your Song (feat. Elton John) [Live from the 52nd Annual Grammy Awards] - Single\02 Poker Face _ Speechless _ Your So.m4v
Формат : MPEG-4
Идентификатор кодека : M4V
Размер файла : 88,4 Мбайт
Продолжительность : 6 м. 38 с.
Общий поток : 1859 Кбит/сек
Название фильма : Poker Face / Speechless / Your Song (feat. Elton John) [Live from the 52nd Annual Grammy Awards]
Альбом : Poker Face / Speechless / Your Song (feat. Elton John) [Live from the 52nd Annual Grammy Awards] - Single
Альбом/Исполнитель : Lady GaGa
Часть/Положение : 1
Часть/Всего : 1
Трек/Положение : 2
Трек/Всего : 2
Исполнитель : Lady GaGa
Жанр : Pop
Дата записи : 2010
Дата кодирования : UTC 2010-02-02 04:21:56
Дата пометки : UTC 2010-02-02 04:33:24
Библиотека кодирования : Apple QuickTime
Правообладатель : ℗ (C) 2010 The Recording Academy Under Exclusive License to UMG Recordings, Inc.
Обложка : Yes
apID : <a href="mailto:edioso_123@aol.com.mx" class="postLink">edioso_123@aol.com.mx</a>
cnID : 353672047
rtng : 0
atID : 277293880
plID : 353672026
geID : 1614
sfID : 143468
akID : 0
stik : 6
purd : 2010-02-14 21:08:32
xid : Universal:isrc:USUMV1000032
iTunMOVI : / / / / asset-info / / file-size / 92695992 / flavor / 6:640x480LC-256 / screen-format / widescreen / / /

Видео
Идентификатор : 1
Формат : AVC
Формат/Информация : Advanced Video Codec
Профиль формата : <a href="mailto:Baseline@L3.0" class="postLink">Baseline@L3.0</a>
Параметр CABAC формата : Нет
Параметр ReFrames формата : 1 кадр
Идентификатор кодека : avc1
Идентификатор кодека/Информация : Advanced Video Coding
Продолжительность : 6 м. 38 с.
Битрейт : 1582 Кбит/сек
Ширина : 640 пикселей
Высота : 352 пикселя
Соотношение сторон : 16:9
Режим частоты кадров : Постоянный
Частота кадров : 29,970 кадров/сек
Цветовое пространство : YUV
Субдискретизация насыщенности : 4:2:0
Битовая глубина : 8 бит
Тип развёртки : Прогрессивная
Бит/(Пиксели*Кадры) : 0.234
Размер потока : 75,2 Мбайт (85%)
Язык : English
Дата кодирования : UTC 2010-02-02 04:33:16
Дата пометки : UTC 2010-02-02 04:33:24
Основные цвета : BT.601-6 525, BT.1358 525, BT.1700 NTSC, SMPTE 170M
Характеристики трансфера : BT.709-5, BT.1361
Коэффициенты матрицы : BT.601-6 525, BT.1358 525, BT.1700 NTSC, SMPTE 170M

Аудио
Идентификатор : 2
Формат : AAC
Формат/Информация : Advanced Audio Codec
Профиль формата : LC
Идентификатор кодека : 40
Продолжительность : 6 м. 38 с.
Продолжительность оригинала : 6 м. 39 с.
Вид битрейта : Постоянный
Битрейт : 256 Кбит/сек
Каналы : 2 канала
Расположение каналов : Front: L R
Частота : 44,1 КГц
Метод сжатия : С потерями
Размер потока : 12,0 Мбайт (14%)
Размер потока оригинала : 12,0 Мбайт (14%)
Язык : English
Дата кодирования : UTC 2010-02-02 04:33:16
Дата пометки : UTC 2010-02-02 04:33:24

Меню
Идентификатор : 3
Язык : English
Дата кодирования : UTC 2010-02-02 04:33:24
Дата пометки : UTC 2010-02-02 04:33:24
Продолжительность: 00:05:21
Источник: http://itunes.apple.com/gb/album/the-edge-of-glory-single/id436765981

Треклист:
1. The Edge of Glory
Продолжительность: 00:08:01
Источник: http://itunes.apple.com/se/album/you-and-i-single/id468294247

Треклист:
1. Yoü and I (Radio Edit)
2. Yoü and I (Mark Taylor Remix)
Продолжительность: 00:08:28
Источник: сингл был доступен временно

Треклист:
1. Telephone
2. Telephone (Alphabeat Remix Edit)
Продолжительность: 00:02:51
Источник: http://itunes.apple.com/us/album/3-way-golden-rule-feat.-justin/id444611947

Треклист:
1. 3-Way (The Golden Rule) (feat. Justin Timberlake & Lady Gaga)



Сте́фани Джоа́нн Анджели́на Джермано́тта (англ. Stefani Joanne Angelina Germanotta, род. 28 марта 1986 года), более известная как Ле́ди Га́га (англ. Lady Gaga) — американская певица, танцовщица, диджей, композитор.
Обладательница пяти премий Грэмми, 30 премий MTV, премии Эмми, исполняющая танцевальную поп-музыку, в которой соединились влияние глэм-рока, диско, электро, R&B, Мадонны, Майкла Джексона. Её дебютный альбом The Fame (2008) стал международным хитом. Сингл из него «Just Dance» летом 2008 года возглавил хит-парады США и Канады, а 11 января 2009 года вышел на первое место в Великобритании. По состоянию на октябрь 2011 года продажи синглов и альбомов Леди Гаги превысили 100 миллионов. Леди Гага (Стефани Джерманотта) названа в честь своей умершей тёти Джоанны Стефани Джерманотта.


Трекер:  [ 08-Май-2012 15:50 ]

  

Скачать .torrent

Размер .torrent файла 42 KB


Размер: 2.45 GB
Хэш (hash) релиза: b99d86b4ef4c3675da10c9dfb0c74fd5f481b9a2

Еще никто не оставлял запись к записи скачать торрент Lady GaGa - iTunes Discography . Будь первым!

!Обратная связь