Скачать через торрент [Music Video] Madonna - Girl Gone Wild бесплатно русская версия torrent активатор

Если у вас наблюдаются проблемы со скриншотами, переходом по ссылками, скачиванием торрентов - проблемы в блокировщике рекламы AdBlock. #хорошегоДня!


Статистика раздачи
Размер:  48 MB   |    Зарегистрирован:  5 лет 6 месяцев   |    .torrent скачан:  193 раза   |   
Раздают:  1  
   
Загрузка...
 
Автор Сообщение

L


Madonna - Girl Gone Wild

Год выпуска: 2012 Страна: USA Жанр: Pop Продолжительность: 0:03:45
Качество: Web-DL Формат: M4V Видео кодек: AVC 3.0 Аудио кодек: AAC Видео: 640x352, 1490 Kbps, 23.976 fps Аудио: 256 Kbps, 44100Hz, 2 channels
  
GeneralComplete name : Madonna - Girl Gone Wild.m4vFormat : MPEG-4Codec ID : M4VFile size : 47.9 MiBDuration : 3mn 45sOverall bit rate : 1 780 KbpsMovie name : Girl Gone WildPerformer : MadonnaGenre : PopRecorded date : UTC 2012-03-26 07:00:00Encoded date : UTC 2012-03-22 20:11:33Tagged date : UTC 2012-03-28 11:08:11Writing library : Apple QuickTimeCopyright : ℗ (C) 2012 Boy Toy, Inc. Exclusively licensed to Live Nation Worldwide, Inc. Exclusively licensed to Interscope RecordsCover : YescnID : 513073342rtng : 1atID : 459104807geID : 1614stik : 6xid : Universal:isrc:USUMV1200023flvr : 6:640x480LC-256iTunMOVI : <?xml version="1.0" encoding="UTF-8"?> / <!DOCTYPE plist PUBLIC "-//Apple//DTD PLIST 1.0//EN" "http://www.apple.com/DTDs/PropertyList-1.0.dtd"> / <plist version="1.0"> / <dict> / <key>asset-info</key> / <dict> / <key>file-size</key> / <integer>50220899</integer> / <key>flavor</key> / <string>6:640x480LC-256</string> / <key>screen-format</key> / <string>widescreen</string> / </dict> / </dict> / </plist>

VideoID : 1Format : AVCFormat/Info : Advanced Video CodecFormat profile : <a href="mailto:Baseline@L3.0Format" class="postLink">Baseline@L3.0Format</a> settings, CABAC : NoFormat settings, ReFrames : 1 frameCodec ID : avc1Codec ID/Info : Advanced Video CodingDuration : 3mn 45sBit rate : 1 490 KbpsWidth : 640 pixelsHeight : 352 pixelsDisplay aspect ratio : 16:9Frame rate mode : ConstantFrame rate : 23.976 fpsColor space : YUVChroma subsampling : 4:2:0Bit depth : 8 bitsScan type : ProgressiveBits/(Pixel*Frame) : 0.276Stream size : 40.1 MiB (84%)Language : EnglishEncoded date : UTC 2012-03-22 20:14:26Tagged date : UTC 2012-03-22 20:14:30Color primaries : BT.601-6 525, BT.1358 525, BT.1700 NTSC, SMPTE 170MTransfer characteristics : BT.709-5, BT.1361Matrix coefficients : BT.601-6 525, BT.1358 525, BT.1700 NTSC, SMPTE 170M

AudioID : 2Format : AACFormat/Info : Advanced Audio CodecFormat profile : LCCodec ID : 40Duration : 3mn 45sBit rate mode : ConstantBit rate : 256 KbpsChannel(s) : 2 channelsChannel positions : Front: L RSampling rate : 44.1 KHzCompression mode : LossyStream size : 6.66 MiB (14%)Language : EnglishEncoded date : UTC 2012-03-22 20:14:26Tagged date : UTC 2012-03-28 11:08:11Material_Duration : 225744Material_StreamSize : 6981387

MenuID : 3Language : EnglishEncoded date : UTC 2012-03-22 20:14:30Tagged date : UTC 2012-03-22 20:14:30


Трекер:  [ 29-Мар-2012 18:10 ]

  

Скачать .torrent

Размер .torrent файла 15 KB


Размер: 48 MB
Хэш (hash) релиза: 9142303f59041788f85d103488f36efd4097eab6

Еще никто не оставлял запись к записи скачать торрент [Music Video] Madonna - Girl Gone Wild . Будь первым!

!Обратная связь