Скачать через торрент Стрелок с Черной скалы Black Rock Shooter бесплатно русская версия torrent активатор

Если у вас наблюдаются проблемы со скриншотами, переходом по ссылками, скачиванием торрентов - проблемы в блокировщике рекламы AdBlock. #хорошегоДня!


Статистика раздачи
Размер:  1.24 GB   |    Зарегистрирован:  5 лет 6 месяцев   |    .torrent скачан:  79 раз   |   
Раздают:  1  
   
Загрузка...
 
Автор Сообщение

L


Стрелок с Черной скалы
Black Rock Shooter
Год выпуска: 2012
Страна: Япония
Жанр: драма, мистика, школа
Продолжительность: 8 эпизодов по 25 минут + OVA 52 минуты
Перевод : Субтитры
Русские субтитры: есть

Количество серий: 8 из 8 + OVA

Режиссёр: Ёсиока Синобу

Описание: Жить в обществе и быть свободным от общества нельзя. Но хотя строить взаимоотношения непросто, уйти от этого не получится, а готовых рецептов нет. Нужен ли ты кому-то или обречен на одиночество? Что такое дружба – равный союз или подчинение? Можно ли, приближая одного, не отталкивать другого? Кем лучше быть – ведущим или ведомым? Мато и Ёми, Ю и Кагари - обычные ученицы средней школы – тоже ищут ответы на непростые вопросы, мучаясь неизвестностью, страдая от непонимания, страшась неудачи. Но этот путь каждый должен пройти сам, не надеясь на школьного психолога и ее кофе-машину!

А тем временем в мире снов живут отражения героинь – загадочный Стрелок Черной скалы, трагическая Хозяйка Мертвых, обманчивая с виду Мощь, стремительная Возница и совсем уж странная Пила Черного Золота. Сталкиваясь и сражаясь друг с другом, альтер-эго решают проблемы хозяек, поднимая на свет нечто из темных глубин подсознания, помогая отбросить никчемное и понять главное. Недаром еще древние считали, что добрая драка – лучший способ облегчить душу, или, говоря современным языком, провести рационализацию комплексов. Вот только с черным кофе не надо перебарщивать!

Формат: mp4
Видео кодек: XviD
аудио кодек: ААС
Разрешение: 480x272
Другие параметры видео: 550 кбит/с; 23.976 кадров/с
Аудио: 128 кбит/с; 2 канала; 48 KHz
Вшитая обложка: есть
Телешоу/видеоклип : прописан
Серия/сезон: прописан
1. How Much Louder Do I Need to Shout?
2. The Sky Embracing Dawn
3. Tears Held Back Threaten to Spill Over
4. The World I Dreamed of One Day Closes Up
5. Black Rock Shooter
6. Hope That Time There Shouldn`t Have Been Any
7. Wish Upon the Star Shooting Through the Dark
8. Overcome the World
General
Complete name : C:\iphone anime\Black Rock Shooter[iPhone, iPod Touch]\01. How Much Louder Do I Need to Shout.mp4
Format : MPEG-4
Format profile : Base Media
Codec ID : isom
File size : 115 MiB
Duration : 23mn 0s
Overall bit rate mode : Variable
Overall bit rate : 699 Kbps
Movie name : How Much Louder Do I Need to Shout?
Album : Black★Rock Shooter
Performer : Black★Rock Shooter
Genre : Animation
Recorded date : 2012
Encoded date : UTC 2012-03-05 19:32:38
Tagged date : UTC 2012-03-28 09:22:37
Cover : Yes
tvsh : Black★Rock Shooter
tven : How Much Louder Do I Need to Shout?
tves : 1
stik : 10

Video
ID : 1
Format : AVC
Format/Info : Advanced Video Codec
Format profile : <a href="mailto:Baseline@L3.0" class="postLink">Baseline@L3.0</a>
Format settings, CABAC : No
Format settings, ReFrames : 5 frames
Codec ID : avc1
Codec ID/Info : Advanced Video Coding
Duration : 23mn 0s
Bit rate : 550 Kbps
Maximum bit rate : 2 668 Kbps
Width : 480 pixels
Height : 272 pixels
Display aspect ratio : 16:9
Frame rate mode : Constant
Frame rate : 23.976 fps
Color space : YUV
Chroma subsampling : 4:2:0
Bit depth : 8 bits
Scan type : Progressive
Bits/(Pixel*Frame) : 0.176
Stream size : 90.5 MiB (79%)
Writing library : x264 core 119 r2106 07efeb4
Encoding settings : cabac=0 / ref=5 / deblock=1:1:1 / analyse=0x1:0x111 / me=umh / subme=7 / psy=1 / psy_rd=1.00:0.00 / mixed_ref=1 / me_range=16 / chroma_me=1 / trellis=0 / 8x8dct=0 / cqm=0 / deadzone=21,11 / fast_pskip=0 / chroma_qp_offset=-2 / threads=12 / sliced_threads=0 / nr=0 / decimate=0 / interlaced=0 / bluray_compat=0 / constrained_intra=0 / bframes=0 / weightp=0 / keyint=250 / keyint_min=23 / scenecut=40 / intra_refresh=0 / rc_lookahead=60 / rc=2pass / mbtree=1 / bitrate=550 / ratetol=1.0 / qcomp=0.60 / qpmin=0 / qpmax=69 / qpstep=4 / cplxblur=20.0 / qblur=0.5 / vbv_maxrate=10000 / vbv_bufsize=10000 / nal_hrd=none / ip_ratio=1.40 / aq=1:1.20
Encoded date : UTC 2012-03-05 19:32:38
Tagged date : UTC 2012-03-05 19:32:40

Audio
ID : 2
Format : AAC
Format/Info : Advanced Audio Codec
Format profile : LC
Codec ID : 40
Duration : 23mn 0s
Bit rate mode : Variable
Bit rate : 144 Kbps
Maximum bit rate : 172 Kbps
Channel(s) : 2 channels
Channel positions : Front: L R
Sampling rate : 48.0 KHz
Compression mode : Lossy
Stream size : 23.7 MiB (21%)
Encoded date : UTC 2012-03-05 19:32:40
Tagged date : UTC 2012-03-05 19:32:40


Трекер:  [ 29-Мар-2012 18:09 ]

  

Скачать .torrent

Размер .torrent файла 13 KB


Размер: 1.24 GB
Хэш (hash) релиза: b44b970631c7abcf9c2d7400cac515d29892d7ee

Еще никто не оставлял запись к записи скачать торрент Стрелок с Черной скалы Black Rock Shooter . Будь первым!

!Обратная связь