Скачать через торрент Мику Хацунэ Hatsune Miku ~Impacts~ бесплатно русская версия torrent активатор

Если у вас наблюдаются проблемы со скриншотами, переходом по ссылками, скачиванием торрентов - проблемы в блокировщике рекламы AdBlock. #хорошегоДня!


Статистика раздачи
Размер:  972 MB   |    Зарегистрирован:  5 лет 6 месяцев   |    .torrent скачан:  59 раз   |   
Раздают:  1  
   
Загрузка...
 
Автор Сообщение

L


Hatsune Miku ~Impacts~
Год выпуска: 2010
Страна: Япония
Продолжительность: 01:40:34
Перевод : не требуется
Субтитры: не требуется
Описание: Официальное двухдисковое собрание клипов Hatsune Miku от Sony Music Direct.

Качество: DVDRip
Формат: *.m4v
Видео кодек: H.264
Аудио кодек: ААС
Разрешение: 480х368, 480х288
Другие параметры видео: 640 Кбит/сек, 1,667, 29,970 кадр/сек
Другие параметры видео: 960 Кбит/сек, 4:3, 29,945 кадр/сек
Аудио : 160 Кбит/сек, 2 канала(ов), 48,0 КГц
Вшитая обложка: есть
Доп. теги (режиссёр, актёры и т.д.): не требуется
Телешоу/видеоклип : есть
Главы: нет
Серия/сезон: не треубется
01: Rage of Hatsune (ゲキド・オブ・ハツネ) - Honpoko
02: Poppippo~ - RamaazuP
03: I tried multiplying Hachune Miku (はちゅねミクをふやしてみた) - Otomania
04: Tie, Open, Rakshasa and Skeleton (Musunde Aite Rasetsu to Mukuro - Hachi
05: Love is War (恋は戦争) - supercell
06: Song of Turquoise Parade (トルコ行進曲) - Owata
07: Miku Miku ni Shite Ageru [Dot Art] - ika/yokota
08: Love-colored Ward (恋色病棟) - OSTER Project / YOji
09: Cremation Song (火葬曲) - No.D / Ueno
10: Hello Planet - sasakure.UK
11: VOiCE - RavuriiP / Nyohoho
12: Konbini - cokesi / yunomi
13: Hato (ハト) - Kazemi Ren / brother
<!--/code_head--> <div class="c-body">Формат                           : MPEG-4
Профиль формата                  : Base Media / Version 2
Идентификатор кодека             : mp42
Размер файла                     : 34,1 Мбайт
Продолжительность                : 4 м. 32 с.
Общий поток                      : 1051 Кбит/сек
Дата кодирования                 : 2010
Дата пометки                     : UTC 2012-03-26 21:31:30
Программа кодирования            : HandBrake 0.9.6 2012022800
Обложка                          : Yes
desc                             : Официальное двухдисковое собрание клипов Hatsune Miku от Sony Music Direct.
ldes                             : Официальное двухдисковое собрание клипов Hatsune Miku от Sony Music Direct.
stik                             : 6

Видео
Идентификатор                    : 1
Формат                           : AVC
Формат/Информация                : Advanced Video Codec
Профиль формата                  : <a href="mailto:Baseline@L3.0" class="postLink">Baseline@L3.0</a>
Параметр CABAC формата           : Нет
Параметр ReFrames формата        : 4 кадры
Идентификатор кодека             : avc1
Идентификатор кодека/Информация  : Advanced Video Coding
Продолжительность                : 4 м. 32 с.
Вид битрейта                     : Переменный
Битрейт                          : 896 Кбит/сек
Ширина                           : 480 пикс.
Высота                           : 368 пикс.
Соотношение сторон               : 4:3
Режим частоты кадров             : Переменный
Частота кадров                   : 29,945 кадр/сек
Минимальная частота кадров       : 3,847 кадр/сек
Максимальная частота кадров      : 29,970 кадр/сек
Цветовое пространство            : YUV
Подвыборка цветности             : 4:2:0
Битовая глубина                  : 8 бит
Тип развёртки                    : Прогрессивная
Бит/(Пиксели*Кадры)              : 0.169
Размер потока                    : 28,8 Мбайт (84%)
Библиотека кодирования           : x264 core 120
Настройки программы              : cabac=0 / ref=4 / deblock=1:0:0 / analyse=0x1:0x131 / me=umh / subme=6 / psy=1 / psy_rd=0.00:0.00 / mixed_ref=1 / me_range=16 / chroma_me=1 / trellis=0 / 8x8dct=0 / cqm=0 / deadzone=21,11 / fast_pskip=0 / chroma_qp_offset=0 / threads=6 / sliced_threads=0 / nr=0 / decimate=1 / interlaced=0 / bluray_compat=0 / constrained_intra=0 / bframes=0 / weightp=0 / keyint=300 / keyint_min=30 / scenecut=40 / intra_refresh=0 / rc_lookahead=40 / rc=2pass / mbtree=1 / bitrate=896 / ratetol=1.0 / qcomp=0.60 / qpmin=3 / qpmax=69 / qpstep=4 / cplxblur=20.0 / qblur=0.5 / vbv_maxrate=1500 / vbv_bufsize=2000 / nal_hrd=none / ip_ratio=1.40 / aq=1:1.00
Дата кодирования                 : UTC 2012-03-24 05:00:23
Дата пометки                     : UTC 2012-03-24 05:00:53
Основные цвета                   : BT.601-6 525, BT.1358 525, BT.1700 NTSC, SMPTE 170M
Характеристики трансфера         : BT.709-5, BT.1361
Коэффициенты матрицы             : BT.601-6 525, BT.1358 525, BT.1700 NTSC, SMPTE 170M

Аудио
Идентификатор                    : 2
Формат                           : AAC
Формат/Информация                : Advanced Audio Codec
Профиль формата                  : LC
Идентификатор кодека             : 40
Продолжительность                : 4 м. 32 с.
Вид битрейта                     : Переменный
Битрейт                          : 160 Кбит/сек
Максимальный битрейт             : 352 Кбит/сек
Канал(ы)                         : 2 канала(ов)
Расположение каналов             : Front: L R
Частота                          : 48,0 КГц
Метод сжатия                     : С потерями
Размер потока                    : 5,19 Мбайт (15%)
Язык                             : Japanese
Дата кодирования                 : UTC 2012-03-24 05:00:23
Дата пометки                     : UTC 2012-03-24 05:00:53
<!--/code--><!--/code_wrap-->



Hatsune Miku ~Memories~
Год выпуска: 2010
Страна: Япония
Продолжительность: 00:59:38
Перевод : не требуется
Субтитры: не требуется
Описание: Официальное двухдисковое собрание клипов Hatsune Miku от Sony Music Direct.

Качество: DVDRip
Формат: *.m4v
Видео кодек: H.264
Аудио кодек: ААС
Разрешение: 480х304
Другие параметры видео: 640 Кбит/сек, 1,579, 29,970 кадр/сек
Аудио : 160 Кбит/сек, 2 канала(ов), 48,0 КГц
Вшитая обложка: есть
Доп. теги (режиссёр, актёры и т.д.): не требуется
Телешоу/видеоклип : есть
Главы: нет
Серия/сезон: не треубется
01: Hajimete no Oto - malo/puniko
02: Erekutorikku Enjeu de Tegaki Anime - Yasuo
03: World is Mine - supercell
04: celluloid - baker
05: Melody.exe ver2.0 - Kiyoshiki PV Sound Rengou
06: Black Rock Shooter - supercell
07: Last Night, Good Night - livetune
08: Dear - 19's Sound Factory
09: SETSUNA - SHIKI
10: Nebula - tripshots
11: LOL -lots of laught- - mikumix
12: Yuuhizaka - doriko
13: Smily x Smily PV ver.1.1 - GonGoss/Moch
<!--/code_head--> <div class="c-body">Формат                           : MPEG-4
Профиль формата                  : Base Media / Version 2
Идентификатор кодека             : mp42
Размер файла                     : 342 Мбайт
Продолжительность                : 59 м.
Общий поток                      : 802 Кбит/сек
Дата кодирования                 : 2010
Дата пометки                     : UTC 2012-03-26 21:38:35
Программа кодирования            : HandBrake 0.9.6 2012022800
Обложка                          : Yes
desc                             : Официальное двухдисковое собрание клипов Hatsune Miku от Sony Music Direct.
ldes                             : Официальное двухдисковое собрание клипов Hatsune Miku от Sony Music Direct.
stik                             : 6

Видео
Идентификатор                    : 1
Формат                           : AVC
Формат/Информация                : Advanced Video Codec
Профиль формата                  : <a href="mailto:Baseline@L3.0" class="postLink">Baseline@L3.0</a>
Параметр CABAC формата           : Нет
Параметр ReFrames формата        : 4 кадры
Идентификатор кодека             : avc1
Идентификатор кодека/Информация  : Advanced Video Coding
Продолжительность                : 59 м.
Вид битрейта                     : Переменный
Битрейт                          : 640 Кбит/сек
Ширина                           : 480 пикс.
Высота                           : 304 пикс.
Соотношение сторон               : 1,579
Режим частоты кадров             : Постоянный
Частота кадров                   : 29,970 кадр/сек
Цветовое пространство            : YUV
Подвыборка цветности             : 4:2:0
Битовая глубина                  : 8 бит
Тип развёртки                    : Прогрессивная
Бит/(Пиксели*Кадры)              : 0.146
Размер потока                    : 272 Мбайт (80%)
Библиотека кодирования           : x264 core 120
Настройки программы              : cabac=0 / ref=4 / deblock=1:0:0 / analyse=0x1:0x131 / me=umh / subme=6 / psy=1 / psy_rd=0.00:0.00 / mixed_ref=1 / me_range=16 / chroma_me=1 / trellis=0 / 8x8dct=0 / cqm=0 / deadzone=21,11 / fast_pskip=0 / chroma_qp_offset=0 / threads=6 / sliced_threads=0 / nr=0 / decimate=1 / interlaced=0 / bluray_compat=0 / constrained_intra=0 / bframes=0 / weightp=0 / keyint=300 / keyint_min=30 / scenecut=40 / intra_refresh=0 / rc_lookahead=40 / rc=2pass / mbtree=1 / bitrate=640 / ratetol=1.0 / qcomp=0.60 / qpmin=3 / qpmax=69 / qpstep=4 / cplxblur=20.0 / qblur=0.5 / vbv_maxrate=1500 / vbv_bufsize=2000 / nal_hrd=none / ip_ratio=1.40 / aq=1:1.00
Дата кодирования                 : UTC 2012-03-24 05:12:03
Дата пометки                     : UTC 2012-03-24 05:21:41
Основные цвета                   : BT.601-6 525, BT.1358 525, BT.1700 NTSC, SMPTE 170M
Характеристики трансфера         : BT.709-5, BT.1361
Коэффициенты матрицы             : BT.601-6 525, BT.1358 525, BT.1700 NTSC, SMPTE 170M

Аудио
Идентификатор                    : 2
Формат                           : AAC
Формат/Информация                : Advanced Audio Codec
Профиль формата                  : LC
Идентификатор кодека             : 40
Продолжительность                : 59 м.
Вид битрейта                     : Переменный
Битрейт                          : 160 Кбит/сек
Максимальный битрейт             : 385 Кбит/сек
Канал(ы)                         : 2 канала(ов)
Расположение каналов             : Front: L R
Частота                          : 48,0 КГц
Метод сжатия                     : С потерями
Размер потока                    : 68,2 Мбайт (20%)
Дата кодирования                 : UTC 2012-03-24 05:12:03
Дата пометки                     : UTC 2012-03-24 05:21:41
<!--/code--><!--/code_wrap-->

Релиз Группы:


Трекер:  [ 29-Мар-2012 07:54 ]

  

Скачать .torrent

Размер .torrent файла 3 KB


Размер: 972 MB
Хэш (hash) релиза: dfaf79ddac5fb816c4391a62cb10e205a928cc6c

Еще никто не оставлял запись к записи скачать торрент Мику Хацунэ Hatsune Miku ~Impacts~ . Будь первым!

!Обратная связь