Скачать через торрент [ANIME] Хеллсинг: Война с нечистью Herushingu бесплатно русская версия torrent активатор

Если у вас наблюдаются проблемы со скриншотами, переходом по ссылками, скачиванием торрентов - проблемы в блокировщике рекламы AdBlock. #хорошегоДня!


Статистика раздачи
Размер:  2.37 GB   |    Зарегистрирован:  5 лет 6 месяцев   |    .torrent скачан:  66 раз   |   
Раздают:  1  
   
Загрузка...
 
Автор Сообщение

L


Хеллсинг: Война с нечистью / Herushingu / Hellsing

Год выпуска: 2001
Страна: Япония
Жанр: аниме, мультфильм, ужасы, фэнтези, боевик, триллер
Продолжительность: 00:22:53
Перевод : Профессиональный (многоголосый закадровый)
Русские субтитры: есть
Количество серий: 13 из 13
Режиссёр: Толизин Джаффе, Тсутому Айда, Ясунори Урата / Taliesin Jaffe, Tsutomu Iida, Yasunori Urata
В ролях: Дзёдзи Наката, Йошико Сакакибара, Фумико Орикаса, Стивен Брэнд, Ральф Листер, Криспин Фриман, Кейти Грэй, Виктория Харвуд, Майкл Паркер, Джейби Бланк
Описание: Со времен легендарного охотника на вампиров, профессора Ван Хелсинга, тайная организация Королевский Протестантских Рыцарей, унаследовавшая имя своего основателя — «Хеллсинг», успешно сражается с вампирами, оборотнями и прочей нечистью, на берегах туманного Альбиона. Сейчас во главе организации стоит хладнокровная Интегра, правнучка Ван Хелсинга.
Качество: DVDRip
Формат: *.m4v
Видео кодек: H.264
аудио кодек: ААС
Разрешение: 480x368
Другие параметры видео: AVC at 850 Кбит/сек, 480 x 368 (1.304) at 25.000 fps
Аудио: AAC at 128 Кбит/сек, 2 канала, 48,0 КГц
Вшитая обложка: есть
Доп. теги (режиссёр, актёры и т.д.): частично
Телешоу/видеоклип : прописан
Главы: нет
Серия/сезон: прописан
Общее
Полное имя : F:\Hellsing\E1.m4v
Формат : MPEG-4
Идентификатор кодека : M4V
Размер файла : 183 Мбайт
Продолжительность : 22 м.
Режим общего битрейта : Переменный
Общий поток : 1116 Кбит/сек
Название фильма : The Undead
Альбом : Hellsing
Жанр : Animation
Дата записи : 2001-10-11
Дата кодирования : UTC 2012-03-25 12:48:19
Дата пометки : UTC 2012-03-26 13:23:38
Программа кодирования : Yamb 2.1.0.0 []http://yamb.unite-video.com]
Обложка : Yes
iTunMOVI : <?xml version="1.0" encoding="UTF-8"?> / <!DOCTYPE plist PUBLIC "-//Apple//DTD PLIST 1.0//EN" "http://www.apple.com/DTDs/PropertyList-1.0.dtd"> / <plist version="1.0"> / <dict> / <key>cast</key> / <array> / <dict> / <key>name</key> / <string>Дзёдзи Наката</string> / </dict> / <dict> / <key>name</key> / <string>Йошико Сакакибара</string> / </dict> / <dict> / <key>name</key> / <string>Фумико Орикаса</string> / </dict> / </array> / </dict> / </plist>
tvsh : Hellsing
tven : The Undead
tvsn : 1
tves : 1
desc : После назначения нового священника в селе Чадар начали исчезать люди. Для расследования инцидента и для ареста священника туда был послан отряд полиции, но все были убиты.
ldes : После назначения нового священника в селе Чадар начали исчезать люди. Для расследования инцидента и для ареста священника туда был послан отряд полиции, но все были убиты. Затем из Лондона был послан спецотряд Д-11, который обнаружил, что деревня захвачена зомби. Из отряда Д-11 спасается только одна девушка Виктория Серас, но и она становится вампиром… по доброй воле, благодаря Алукарду, который избавляет село от священника-вампира.
stik : 10

Видео
Идентификатор : 1
Формат : AVC
Формат/Информация : Advanced Video Codec
Профиль формата : <a href="mailto:Baseline@L2.1" class="postLink">Baseline@L2.1</a>
Параметр CABAC формата : Нет
Параметр ReFrames формата : 4 кадра
Идентификатор кодека : avc1
Идентификатор кодека/Информация : Advanced Video Coding
Продолжительность : 22 м.
Битрейт : 850 Кбит/сек
Максимальный битрейт : 4011 Кбит/сек
Ширина : 480 пикселей
Высота : 368 пикселей
Соотношение сторон : 4:3
Режим частоты кадров : Постоянный
Частота кадров : 25,000 кадров/сек
Цветовое пространство : YUV
Субдискретизация насыщенности : 4:2:0
Битовая глубина : 8 бит
Тип развёртки : Прогрессивная
Бит/(Пиксели*Кадры) : 0.192
Размер потока : 139 Мбайт (76%)
Библиотека кодирования : x264 core 120
Настройки программы : cabac=0 / ref=4 / deblock=1:0:0 / analyse=0x1:0x111 / me=umh / subme=8 / psy=1 / psy_rd=1.00:0.00 / mixed_ref=1 / me_range=16 / chroma_me=1 / trellis=0 / 8x8dct=0 / cqm=0 / deadzone=21,11 / fast_pskip=1 / chroma_qp_offset=-2 / threads=6 / sliced_threads=0 / nr=0 / decimate=1 / interlaced=0 / bluray_compat=0 / constrained_intra=0 / bframes=0 / weightp=0 / keyint=250 / keyint_min=25 / scenecut=40 / intra_refresh=0 / rc_lookahead=40 / rc=2pass / mbtree=1 / bitrate=850 / ratetol=1.0 / qcomp=0.60 / qpmin=3 / qpmax=69 / qpstep=4 / cplxblur=20.0 / qblur=0.5 / ip_ratio=1.40 / aq=1:1.00
Дата кодирования : UTC 2012-03-26 10:42:31
Дата пометки : UTC 2012-03-25 12:48:22
Основные цвета : BT.601-6 525, BT.1358 525, BT.1700 NTSC, SMPTE 170M
Характеристики трансфера : BT.709-5, BT.1361
Коэффициенты матрицы : BT.601-6 525, BT.1358 525, BT.1700 NTSC, SMPTE 170M

Аудио #1
Идентификатор : 2
Формат : AAC
Формат/Информация : Advanced Audio Codec
Профиль формата : LC
Идентификатор кодека : 40
Продолжительность : 22 м.
Вид битрейта : Переменный
Битрейт : 128 Кбит/сек
Максимальный битрейт : 243 Кбит/сек
Каналы : 2 канала
Расположение каналов : Front: L R
Частота : 48,0 КГц
Метод сжатия : С потерями
Размер потока : 20,9 Мбайт (11%)
Язык : Russian
Дата кодирования : UTC 2012-03-25 12:48:20
Дата пометки : UTC 2012-03-25 12:48:22

Аудио #2
Идентификатор : 3
Формат : AAC
Формат/Информация : Advanced Audio Codec
Профиль формата : LC
Идентификатор кодека : 40
Продолжительность : 22 м.
Вид битрейта : Переменный
Битрейт : 128 Кбит/сек
Максимальный битрейт : 249 Кбит/сек
Каналы : 2 канала
Расположение каналов : Front: L R
Частота : 48,0 КГц
Метод сжатия : С потерями
Размер потока : 20,9 Мбайт (11%)
Язык : Japanese
Дата кодирования : UTC 2012-03-25 12:48:21
Дата пометки : UTC 2012-03-25 12:48:22

Текст
Идентификатор : 4
Формат : Timed text
Режим смешивания : sbtl
Идентификатор кодека : tx3g
Продолжительность : 21 м.
Вид битрейта : Переменный
Битрейт : 76 бит/сек
Размер потока : 11,8 Кбайт (0%)
Язык : Russian
Дата кодирования : UTC 2012-03-25 12:48:22
Дата пометки : UTC 2012-03-25 12:48:22



Трекер:  [ 29-Мар-2012 07:52 ]

  

Скачать .torrent

Размер .torrent файла 12 KB


Размер: 2.37 GB
Хэш (hash) релиза: 6836297c8ffaf2a026e41a3770c5b1a069056bff

Еще никто не оставлял запись к записи скачать торрент [ANIME] Хеллсинг: Война с нечистью Herushingu . Будь первым!

!Обратная связь