Скачать через торрент Истории подделок Nisemonogatari бесплатно русская версия torrent активатор

Если у вас наблюдаются проблемы со скриншотами, переходом по ссылками, скачиванием торрентов - проблемы в блокировщике рекламы AdBlock. #хорошегоДня!


Статистика раздачи
Размер:  1.35 GB   |    Зарегистрирован:  5 лет 6 месяцев   |    .torrent скачан:  45 раз   |   
Раздают:  1  
   
Загрузка...
 
Автор Сообщение

L


Истории подделок | Nisemonogatari

Год выпуска: 2012
Страна: Япония
Жанр: романтика, мистика, школа, комедия
Продолжительность: 11 эпизодов по 25 минут
Перевод : Субтитры
Русские субтитры: есть

Количество серий: 11 из 11

Режиссёр: Симбо Акиюки

Описание:
Жил-был старшеклассник Коёми Арараги, нормальный такой парень, бывший вампир. Пережить ему пришлось столько, что друзей-ровесников у Коёми не было, зато было много подруг. Правда, как на грех, все подруги оказалось прокляты богами или демонами, но с кем не бывает! Пользуясь новыми силами и связями в оккультном мире, Арараги сумел помочь своим девушкам, а с любимой по имени Хитаги Сэндзёгахара проклятие, кажется, удалось снять полностью (хотя в минуты слабости герой в этом очень сомневается!). И вроде бы все стало хорошо, живи себе, поживай, к экзаменам готовься...
Увы, в жизни так не бывает. Сначала пропал Мэмэ Осино, старый хиппи, он же гуру и духовный учитель. Потом до Коёми стали доходить слухи, что его младшие сестры Карэн и Цукихи, под влиянием братика объявившие себя «рыцарями правосудия» и даже заработавшие кличку «огненные сестры школы Цуга», слегка заигрались. Увы, по сравнению с такими фигурами, как Осино, да и сам Арараги, «огненные сестренки» – лишь подделки, пародия на серьезных специалистов. Имитируя бурную деятельность, Карэн и Цукихи среди фальшивок и иллюзий наткнулись на нечто серьезное и не очень дружелюбное. В итоге свои неприятности они получили, а брату опять расхлебывать!

Формат: mp4
Видео кодек: XviD
аудио кодек: ААС
Разрешение: 480x272
Другие параметры видео: 550 кбит/с; 23.976 кадров/с
Аудио: 128 кбит/с; 2 канала; 48 KHz
Вшитая обложка: есть
Телешоу/видеоклип : прописан
Серия/сезон: прописан
1. Karen Bee, Part 1
2. Karen Bee, Part 2
3. Karen Bee, Part 3
4. Karen Bee, Part 4
5. Karen Bee, Part 5
6. Karen Bee, Part 6
7. Karen Bee, Part 7
8. Tsukihi Phoenix, Part 1
9. Tsukihi Phoenix, Part 2
10. Tsukihi Phoenix, Part 3
11. Tsukihi Phoenix, Part 4
General
Complete name : C:\iphone anime\Nisemonogatari[iPhone, iPod Touch]\1. Karen Bee, Part 1.mp4
Format : MPEG-4
Format profile : Base Media
Codec ID : isom
File size : 122 MiB
Duration : 24mn 30s
Overall bit rate mode : Variable
Overall bit rate : 697 Kbps
Movie name : Karen Bee, Part 1
Album : Nisemonogatari
Performer : Nisemonogatari
Genre : Animation
Recorded date : 2012
Encoded date : UTC 2012-01-26 09:43:48
Tagged date : UTC 2012-03-26 12:43:09
Cover : Yes
tvsh : Nisemonogatari
tven : Karen Bee, Part 1
tves : 1
stik : 10

Video
ID : 1
Format : AVC
Format/Info : Advanced Video Codec
Format profile : <a href="mailto:Baseline@L3.0" class="postLink">Baseline@L3.0</a>
Format settings, CABAC : No
Format settings, ReFrames : 5 frames
Codec ID : avc1
Codec ID/Info : Advanced Video Coding
Duration : 24mn 30s
Bit rate : 550 Kbps
Maximum bit rate : 5 257 Kbps
Width : 480 pixels
Height : 272 pixels
Display aspect ratio : 16:9
Frame rate mode : Constant
Frame rate : 23.976 fps
Color space : YUV
Chroma subsampling : 4:2:0
Bit depth : 8 bits
Scan type : Progressive
Bits/(Pixel*Frame) : 0.176
Stream size : 96.4 MiB (79%)
Writing library : x264 core 119 r2106 07efeb4
Encoding settings : cabac=0 / ref=5 / deblock=1:1:1 / analyse=0x1:0x111 / me=umh / subme=7 / psy=1 / psy_rd=1.00:0.00 / mixed_ref=1 / me_range=16 / chroma_me=1 / trellis=0 / 8x8dct=0 / cqm=0 / deadzone=21,11 / fast_pskip=0 / chroma_qp_offset=-2 / threads=12 / sliced_threads=0 / nr=0 / decimate=0 / interlaced=0 / bluray_compat=0 / constrained_intra=0 / bframes=0 / weightp=0 / keyint=250 / keyint_min=23 / scenecut=40 / intra_refresh=0 / rc_lookahead=60 / rc=2pass / mbtree=1 / bitrate=550 / ratetol=1.0 / qcomp=0.60 / qpmin=0 / qpmax=69 / qpstep=4 / cplxblur=20.0 / qblur=0.5 / vbv_maxrate=10000 / vbv_bufsize=10000 / nal_hrd=none / ip_ratio=1.40 / aq=1:1.20
Encoded date : UTC 2012-01-26 09:43:48
Tagged date : UTC 2012-01-26 09:43:51

Audio
ID : 2
Format : AAC
Format/Info : Advanced Audio Codec
Format profile : LC
Codec ID : 40
Duration : 24mn 30s
Bit rate mode : Variable
Bit rate : 140 Kbps
Maximum bit rate : 176 Kbps
Channel(s) : 2 channels
Channel positions : Front: L R
Sampling rate : 48.0 KHz
Compression mode : Lossy
Stream size : 24.5 MiB (20%)
Encoded date : UTC 2012-01-26 09:43:50
Tagged date : UTC 2012-01-26 09:43:51


Трекер:  [ 29-Мар-2012 07:51 ]

  

Скачать .torrent

Размер .torrent файла 14 KB


Размер: 1.35 GB
Хэш (hash) релиза: d75cc28dfcdc6de6aeedf3c2bc9eb4f71d32028e

Торренты, похожие на Истории подделок Nisemonogatari скачать торрент

Форум Название Автор Размер S L Добавлен
Видео (iPhone/iPod Touch/iPad) ·· [iPad] Истории подделок / Nisemonogatari (Симбо Акиюки / Shinbo Akiyuki) [Сезон 1, серии 1-11 из 11] [JAP+SUB] [2012 г., комедия, этти, мистика, BDRip, 1024x576] Galfimbul 50083725494.66 GB 0 0 1362478526

13:15

5-Мар-13

Еще никто не оставлял запись к записи скачать торрент Истории подделок Nisemonogatari . Будь первым!

!Обратная связь