Скачать через торрент музыку Oscar Peterson - An Oscar Peterson Christmas - 1995, FLAC бесплатно без регистрации torrent

Если у вас наблюдаются проблемы со скриншотами, переходом по ссылками, скачиванием торрентов - проблемы в блокировщике рекламы AdBlock. #хорошегоДня!


Статистика раздачи
Размер:  244 MB   |    Зарегистрирован:  5 лет 6 месяцев   |    .torrent скачан:  86 раз   |   
Раздают:  1  
   
Загрузка...
 
Автор Сообщение

Umakiro

avatar Umakiro


Oscar Peterson – An Oscar Peterson Christmas

Жанр: Bop, Christmas
Год издания: 1995
Издатель (лейбл): TELARC
Номер по каталогу: CD-83372
Аудиокодек: FLAC (*.flac)
Тип рипа: tracks+.cue
Битрейт аудио: lossless
Продолжительность: 53:13
Источник: вата
Наличие сканов в содержимом раздачи: сетевые

Треклист:
01. God Rest Ye Merry, Gentlemen (3:28)
02. What Child Is This? (4:51)
03. Let It Snow (3:44)
04. White Christmas (3:53)
05. Jingle Bells (3:19)
06. I'll Be Home For Christmas (2:51)
07. Santa Claus Is Coming To Town (3:32)
08. O Little Town Of Bethlehem (3:19)
09. Christmas Waltz (6:56)
10. Have Yourself A Merry Little Christmas (4:00)
11. Silent Night (3:11)
12. Winter Wonderland (4:11)
13. Away In A Manger (3:38)
14. O Christmas Tree (2:18)

Personnel:
Oscar Peterson - p
Dave Samuels - vib
Jack Schantz - flgn
Lorne Lofsky - g
David Young - b
Jerry Fuller - d
and string section (arranged and conducted by Rick Wilkins)
  
Exact Audio Copy V0.99 prebeta 5 from 4. May 2009

EAC extraction logfile from 25. June 2009, 8:48

Oscar Peterson / An Oscar Peterson Christmas

Used drive : TSSTcorpCD/DVDW SH-S182M Adapter: 0 ID: 0

Read mode : SecureUtilize accurate stream : YesDefeat audio cache : YesMake use of C2 pointers : No

Read offset correction : 6Overread into Lead-In and Lead-Out : NoFill up missing offset samples with silence : YesDelete leading and trailing silent blocks : NoNull samples used in CRC calculations : YesUsed interface : Native Win32 interface for Win NT & 2000Gap handling : Appended to previous track

Used output format : User Defined EncoderSelected bitrate : 768 kBit/sQuality : HighAdd ID3 tag : NoCommand line compressor : C:\Program Files (x86)\Exact Audio Copy\FLAC\FLAC.EXEAdditional command line options : -V -8 -T "artist=%a" -T "title=%t" -T "album=%g" -T "date=%y" -T "tracknumber=%n" -T "genre=%m" %s

TOC of the extracted CD

Track | Start | Length | Start sector | End sector --------------------------------------------------------- 1 | 0:00.00 | 3:28.10 | 0 | 15609 2 | 3:28.10 | 4:50.52 | 15610 | 37411 3 | 8:18.62 | 3:44.10 | 37412 | 54221 4 | 12:02.72 | 3:53.00 | 54222 | 71696 5 | 15:55.72 | 3:18.50 | 71697 | 86596 6 | 19:14.47 | 2:51.25 | 86597 | 99446 7 | 22:05.72 | 3:32.30 | 99447 | 115376 8 | 25:38.27 | 3:19.15 | 115377 | 130316 9 | 28:57.42 | 6:55.73 | 130317 | 161514 10 | 35:53.40 | 4:00.32 | 161515 | 179546 11 | 39:53.72 | 3:11.35 | 179547 | 193906 12 | 43:05.32 | 4:11.33 | 193907 | 212764 13 | 47:16.65 | 3:38.20 | 212765 | 229134 14 | 50:55.10 | 2:17.45 | 229135 | 239454

Track 1

Filename D:\Fresh FLAC\Oscar Peterson - An Oscar Peterson Christmas (1995)\01 God Rest Ye Merry, Gentlemen - Oscar Peterson.wav

Pre-gap length 0:00:02.00

Peak level 96.2 % Track quality 100.0 % Test CRC 6D5E78D1 Copy CRC 6D5E78D1 Accurately ripped (confidence 2) [95361C32] Copy OK

Track 2

Filename D:\Fresh FLAC\Oscar Peterson - An Oscar Peterson Christmas (1995)\02 What Child Iis This - Oscar Peterson.wav

Pre-gap length 0:00:02.60

Peak level 93.0 % Track quality 100.0 % Test CRC DAF11B3D Copy CRC DAF11B3D Accurately ripped (confidence 2) [976692A4] Copy OK

Track 3

Filename D:\Fresh FLAC\Oscar Peterson - An Oscar Peterson Christmas (1995)\03 Let it Snow - Oscar Peterson.wav

Pre-gap length 0:00:04.16

Peak level 77.2 % Track quality 99.9 % Test CRC 2D8FECA5 Copy CRC 2D8FECA5 Accurately ripped (confidence 2) [758CD581] Copy OK

Track 4

Filename D:\Fresh FLAC\Oscar Peterson - An Oscar Peterson Christmas (1995)\04 White Christmas - Oscar Peterson.wav

Pre-gap length 0:00:04.00

Peak level 52.7 % Track quality 100.0 % Test CRC B755D31E Copy CRC B755D31E Accurately ripped (confidence 2) [AF83D0A7] Copy OK

Track 5

Filename D:\Fresh FLAC\Oscar Peterson - An Oscar Peterson Christmas (1995)\05 Jingle Bells - Oscar Peterson.wav

Pre-gap length 0:00:04.52

Peak level 90.1 % Track quality 100.0 % Test CRC 74E7839F Copy CRC 74E7839F Accurately ripped (confidence 2) [2A3A6000] Copy OK

Track 6

Filename D:\Fresh FLAC\Oscar Peterson - An Oscar Peterson Christmas (1995)\06 I'll Be Home For Christmas - Oscar Peterson.wav

Pre-gap length 0:00:03.90

Peak level 88.1 % Track quality 99.9 % Test CRC E3504E8D Copy CRC E3504E8D Cannot be verified as accurate (confidence 10) [B237C290], AccurateRip returned [B2B318EB] Copy OK

Track 7

Filename D:\Fresh FLAC\Oscar Peterson - An Oscar Peterson Christmas (1995)\07 Santa Claus Is Coming to Town - Oscar Peterson.wav

Pre-gap length 0:00:01.82

Peak level 88.2 % Track quality 100.0 % Test CRC F81F9E10 Copy CRC F81F9E10 Cannot be verified as accurate (confidence 10) [0886221F], AccurateRip returned [FB88F6AC] Copy OK

Track 8

Filename D:\Fresh FLAC\Oscar Peterson - An Oscar Peterson Christmas (1995)\08 O Little Town of Bethlehem - Oscar Peterson.wav

Pre-gap length 0:00:03.16

Peak level 62.4 % Track quality 100.0 % Test CRC 1CDF383B Copy CRC 1CDF383B Accurately ripped (confidence 2) [2AC52C54] Copy OK

Track 9

Filename D:\Fresh FLAC\Oscar Peterson - An Oscar Peterson Christmas (1995)\09 Christmas Waltz - Oscar Peterson.wav

Pre-gap length 0:00:03.00

Peak level 68.4 % Track quality 100.0 % Test CRC E3593C6D Copy CRC E3593C6D Accurately ripped (confidence 2) [63B2C1B2] Copy OK

Track 10

Filename D:\Fresh FLAC\Oscar Peterson - An Oscar Peterson Christmas (1995)\10 Have Yourself A Merry Little Christmas - Oscar Peterson.wav

Pre-gap length 0:00:03.64

Peak level 78.9 % Track quality 99.9 % Test CRC 1150C42D Copy CRC 1150C42D Accurately ripped (confidence 2) [5A25CA1C] Copy OK

Track 11

Filename D:\Fresh FLAC\Oscar Peterson - An Oscar Peterson Christmas (1995)\11 Silent Night - Oscar Peterson.wav

Pre-gap length 0:00:04.36

Peak level 81.0 % Track quality 100.0 % Test CRC 0ADCF25C Copy CRC 0ADCF25C Accurately ripped (confidence 2) [11964DD0] Copy OK

Track 12

Filename D:\Fresh FLAC\Oscar Peterson - An Oscar Peterson Christmas (1995)\12 Winter Wonderland - Oscar Peterson.wav

Pre-gap length 0:00:03.53

Peak level 96.2 % Track quality 100.0 % Test CRC 3493740A Copy CRC 3493740A Accurately ripped (confidence 2) [45228AF3] Copy OK

Track 13

Filename D:\Fresh FLAC\Oscar Peterson - An Oscar Peterson Christmas (1995)\13 Away in a Manger - Oscar Peterson.wav

Pre-gap length 0:00:04.70

Peak level 77.6 % Track quality 100.0 % Test CRC 6A850B59 Copy CRC 6A850B59 Accurately ripped (confidence 2) [2519A375] Copy OK

Track 14

Filename D:\Fresh FLAC\Oscar Peterson - An Oscar Peterson Christmas (1995)\14 O Christmas Tree - Oscar Peterson.wav

Pre-gap length 0:00:04.40

Peak level 54.1 % Track quality 100.0 % Test CRC 24AEB1E7 Copy CRC 24AEB1E7 Accurately ripped (confidence 2) [B04010A5] Copy OK

12 track(s) accurately ripped 2 track(s) could not be verified as accurate

Some tracks could not be verified as accurate

No errors occurred

End of status report
  
REM GENRE JazzREM DATE 1995REM DISCID BE0C780EREM COMMENT "ExactAudioCopy v0.99pb5"PERFORMER "Oscar Peterson"TITLE "An Oscar Peterson Christmas"FILE "01. God Rest Ye Merry, Gentlemen.flac" WAVE TRACK 01 AUDIO TITLE "God Rest Ye Merry, Gentlemen" PERFORMER "Oscar Peterson" INDEX 01 00:00:00 TRACK 02 AUDIO TITLE "What Child Is This?" PERFORMER "Oscar Peterson" INDEX 00 03:25:40FILE "02. What Child Is This.flac" WAVE INDEX 01 00:00:00 TRACK 03 AUDIO TITLE "Let It Snow" PERFORMER "Oscar Peterson" INDEX 00 04:46:40FILE "03. Let It Snow.flac" WAVE INDEX 01 00:00:00 TRACK 04 AUDIO TITLE "White Christmas" PERFORMER "Oscar Peterson" INDEX 00 03:40:10FILE "04. White Christmas.flac" WAVE INDEX 01 00:00:00 TRACK 05 AUDIO TITLE "Jingle Bells" PERFORMER "Oscar Peterson" INDEX 00 03:48:36FILE "05. Jingle Bells.flac" WAVE INDEX 01 00:00:00 TRACK 06 AUDIO TITLE "I'll Be Home For Christmas" PERFORMER "Oscar Peterson" INDEX 00 03:14:57FILE "06. I'll Be Home For Christmas.flac" WAVE INDEX 01 00:00:00 TRACK 07 AUDIO TITLE "Santa Claus Is Coming To Town" PERFORMER "Oscar Peterson" INDEX 00 02:49:38FILE "07. Santa Claus Is Coming To Town.flac" WAVE INDEX 01 00:00:00 TRACK 08 AUDIO TITLE "O Little Town Of Bethlehem" PERFORMER "Oscar Peterson" INDEX 00 03:29:18FILE "08. O Little Town Of Bethlehem.flac" WAVE INDEX 01 00:00:00 TRACK 09 AUDIO TITLE "Christmas Waltz" PERFORMER "Oscar Peterson" INDEX 00 03:16:15FILE "09. Christmas Waltz.flac" WAVE INDEX 01 00:00:00 TRACK 10 AUDIO TITLE "Have Yourself A Merry Little Christmas" PERFORMER "Oscar Peterson" INDEX 00 06:52:25FILE "10. Have Yourself A Merry Little Christmas.flac" WAVE INDEX 01 00:00:00 TRACK 11 AUDIO TITLE "Silent Night" PERFORMER "Oscar Peterson" INDEX 00 03:56:05FILE "11. Silent Night.flac" WAVE INDEX 01 00:00:00 TRACK 12 AUDIO TITLE "Winter Wonderland" PERFORMER "Oscar Peterson" INDEX 00 03:07:70FILE "12. Winter Wonderland.flac" WAVE INDEX 01 00:00:00 TRACK 13 AUDIO TITLE "Away In A Manger" PERFORMER "Oscar Peterson" INDEX 00 04:06:55FILE "13. Away In A Manger.flac" WAVE INDEX 01 00:00:00 TRACK 14 AUDIO TITLE "O Christmas Tree" PERFORMER "Oscar Peterson" INDEX 00 03:33:65FILE "14. O Christmas Tree.flac" WAVE INDEX 01 00:00:00
  
[CUETools log; Date: 23.03.2012 3:44:03; Version: 2.0.9][CTDB TOCID: q0DlpOQKy6bWxk5h.7yPdeDmyHA-] found. [ CTDBID ] Status [45805b4c] (1/1) Accurately ripped[AccurateRip ID: 001be0bb-0129bf21-be0c780e] found.Track [ CRC ] Status 01 [95361c32] (04/48) Accurately ripped 02 [976692a4] (04/48) Accurately ripped 03 [758cd581] (04/48) Accurately ripped 04 [af83d0a7] (04/48) Accurately ripped 05 [2a3a6000] (04/48) Accurately ripped 06 [b237c290] (03/47) Accurately ripped 07 [0886221f] (03/47) Accurately ripped 08 [2ac52c54] (04/48) Accurately ripped 09 [63b2c1b2] (04/48) Accurately ripped 10 [5a25ca1c] (04/48) Accurately ripped 11 [11964dd0] (04/48) Accurately ripped 12 [45228af3] (04/48) Accurately ripped 13 [2519a375] (04/48) Accurately ripped 14 [b04010a5] (04/47) Accurately rippedOffsetted by 901: 01 [d6d71056] (27/48) Accurately ripped 02 [d15722a6] (27/48) Accurately ripped 03 [12910e16] (27/48) Accurately ripped 04 [663868fe] (27/48) Accurately ripped 05 [4920bd29] (27/48) Accurately ripped 06 [b2b318eb] (27/47) Accurately ripped 07 [fb88f6ac] (27/47) Accurately ripped 08 [3de9280c] (27/48) Accurately ripped 09 [78f88078] (27/48) Accurately ripped 10 [791f92fe] (27/48) Accurately ripped 11 [d37b5c7b] (27/48) Accurately ripped 12 [90346777] (27/48) Accurately ripped 13 [7f2d5862] (27/48) Accurately ripped 14 [99967b84] (27/47) Accurately rippedOffsetted by 1184: 01 [a42330b2] (05/48) Accurately ripped 02 [5dff9ae4] (05/48) Accurately ripped 03 [f29fbc21] (05/48) Accurately ripped 04 [24e2f147] (05/48) Accurately ripped 05 [5f4fef60] (05/48) Accurately ripped 06 [d0d68bbe] (05/47) Accurately ripped 07 [cb8ff601] (05/47) Accurately ripped 08 [8f378354] (05/48) Accurately ripped 09 [c1dab272] (05/48) Accurately ripped 10 [69d96e5c] (05/48) Accurately ripped 11 [38294f30] (05/48) Accurately ripped 12 [ca786533] (05/48) Accurately ripped 13 [fce73b55] (05/48) Accurately ripped 14 [1bd0753b] (04/47) Accurately rippedOffsetted by 734: 01 [3e08380a] (02/48) Accurately ripped 02 [f1387830] (02/48) Accurately ripped 03 [668c02bf] (02/48) Accurately ripped 04 [e9c0544d] (02/48) Accurately ripped 05 [c6a2bd5a] (02/48) Accurately ripped 06 [de114d82] (02/47) Accurately ripped 07 [4813304d] (02/47) Accurately ripped 08 [94b74ca4] (02/48) Accurately ripped 09 [8b795ad6] (02/48) Accurately ripped 10 [f8a36ce8] (02/48) Accurately ripped 11 [b8a2bc12] (02/48) Accurately ripped 12 [cf526367] (02/48) Accurately ripped 13 [64386a67] (02/48) Accurately ripped 14 [01669612] (03/47) No match but offsetOffsetted by 763: 01 [8b278a0e] (04/48) Accurately ripped 02 [dc5aeba2] (04/48) Accurately ripped 03 [738e6b6c] (04/48) Accurately ripped 04 [284c9934] (04/48) Accurately ripped 05 [bd8f61f3] (04/48) Accurately ripped 06 [aa594aff] (04/47) Accurately ripped 07 [3db5eae8] (04/47) Accurately ripped 08 [febe6c9c] (04/48) Accurately ripped 09 [a2521dec] (04/48) Accurately ripped 10 [d4b2da3a] (04/48) Accurately ripped 11 [cb1810a5] (04/48) Accurately ripped 12 [5baa89d3] (04/48) Accurately ripped 13 [0ee9ffa4] (04/48) Accurately ripped 14 [3c681a54] (04/47) No match but offset

Track Peak [ CRC32 ] [W/O NULL] [ LOG ] -- 96,2 [7E8E86E4] [91DCCECB] 01 96,2 [6D5E78D1] [40843EC4] CRC32 02 93,0 [DAF11B3D] [B20D1517] CRC32 03 77,2 [2D8FECA5] [7A379E30] CRC32 04 52,7 [B755D31E] [18005569] CRC32 05 90,1 [74E7839F] [646FDEDF] CRC32 06 88,1 [E3504E8D] [3D7B9516] CRC32 07 88,2 [F81F9E10] [51FAAAF2] CRC32 08 62,4 [1CDF383B] [F5CA6F2A] CRC32 09 68,4 [E3593C6D] [FDAEFDBE] CRC32 10 78,9 [1150C42D] [3ACCDA71] CRC32 11 81,0 [0ADCF25C] [B16599FC] CRC32 12 96,2 [3493740A] [C2903078] CRC32 13 77,6 [6A850B59] [C44A569F] CRC32 14 54,1 [24AEB1E7] [790C9526] CRC32


Трекер:  [ 26-Мар-2012 20:46 ]

  

Скачать .torrent

Размер .torrent файла 21 KB


Размер: 244 MB
Хэш (hash) релиза: 1f4011cb2b345233936dd556b865c4df1f989f19

Еще никто не оставлял запись к записи скачать торрент Oscar Peterson - An Oscar Peterson Christmas - 1995, FLAC . Будь первым!

!Обратная связь