Скачать через торрент музыку Oscar Peterson, Ray Brown, Ed Tigpen — The Sound Of The Trio бесплатно без регистрации torrent

Если у вас наблюдаются проблемы со скриншотами, переходом по ссылками, скачиванием торрентов - проблемы в блокировщике рекламы AdBlock. #хорошегоДня!


Статистика раздачи
Размер:  505 MB   |    Зарегистрирован:  5 лет 6 месяцев   |    .torrent скачан:  135 раз   |   
Раздают:  2  
   
Загрузка...
 
Автор Сообщение

Umakiro

avatar Umakiro


Oscar Peterson, Ray Brown, Ed Tigpen — The Sound Of The Trio (1961)

Жанр: Bop
Год издания диска: 2000
Лейбл: Verve
Номер по каталогу: 543 321-2
Аудио кодек: FLAC (*.flac)
Тип рипа: tracks+.cue
Битрейт аудио: lossless
Продолжительность: 76:56
Источник: вата
Сканы есть

Треклист:
01. Tricrotism (11:11)
02. On Green Dolphin Street (8:56)
03. Thag's Dance (5:44)
04. Ill Wind (5:36)
05. Kadota's Blues (11:15)
~ Bonus tracks ~
06. Scrapple From The Apple (9:30)
07. Jim (9:14)
08. Band Call (7:47)
09. The Night We Called It A Day (5:09)
10. Billy Boy (2:35)

Personnel:
Oscar Peterson - p
Ray Brown - b
Ed Tigpen - d

Rec.: "London House", Chicago, IL, between July 27 and August 6, 1961.

Торрент-файл перезалит 23.03.2012 - заменен "сомнительный" рип.
  
X Lossless Decoder version 20111113 (137.1)

XLD extraction logfile from 2011-11-18 21:22:09 +1100

Oscar Peterson Trio / The Sound Of The Trio

Used drive : HL-DT-ST DVDRW GA11N (revision KA16)

Ripper mode : XLD Secure RipperDisable audio cache : OK for the drive with a cache less than 1375KiBMake use of C2 pointers : NORead offset correction : 667Max retry count : 100Gap status : Analyzed, Appended

TOC of the extracted CD Track | Start | Length | Start sector | End sector --------------------------------------------------------- 1 | 00:00:00 | 11:10:58 | 0 | 50307 2 | 11:10:58 | 08:55:40 | 50308 | 90472 3 | 20:06:23 | 05:43:55 | 90473 | 116252 4 | 25:50:03 | 05:36:37 | 116253 | 141489 5 | 31:26:40 | 11:15:10 | 141490 | 192124 6 | 42:41:50 | 09:29:45 | 192125 | 234844 7 | 52:11:20 | 09:13:58 | 234845 | 276377 8 | 61:25:03 | 07:47:22 | 276378 | 311424 9 | 69:12:25 | 05:08:50 | 311425 | 334574 10 | 74:21:00 | 02:35:05 | 334575 | 346204

AccurateRip Summary Track 01 : OK (confidence 2) Track 02 : OK (confidence 2) Track 03 : OK (confidence 2) Track 04 : OK (confidence 2) Track 05 : OK (confidence 2) Track 06 : OK (confidence 2) Track 07 : OK (confidence 2) Track 08 : OK (confidence 2) Track 09 : OK (confidence 2) Track 10 : Not Found ->9 track(s) accurately ripped, 0 track(s) not, 1 track(s) not found

All Tracks Album gain : -0.87 dB Peak : 1.000000 Statistics Read error : 0 Jitter error (maybe fixed) : 0 Retry sector count : 0 Damaged sector count : 0

Track 01 Filename : /Users/tom/Oscar Peterson Trio/01 - Tricrotism.flac Pre-gap length : 00:02:00

Track gain : 1.54 dB Peak : 0.699432 CRC32 hash (test run) : 91ACBB7C CRC32 hash : 91ACBB7C CRC32 hash (skip zero) : 61ACC262 AccurateRip signature : 995F01BE ->Accurately ripped! (confidence 2) Statistics Read error : 0 Jitter error (maybe fixed) : 0 Retry sector count : 0 Damaged sector count : 0

Track 02 Filename : /Users/tom/Oscar Peterson Trio/02 - On Green Dolphin Street.flac Pre-gap length : 00:03:35

Track gain : -0.68 dB Peak : 0.870941 CRC32 hash (test run) : 7F4A15CF CRC32 hash : 7F4A15CF CRC32 hash (skip zero) : 244FDD83 AccurateRip signature : 2EB23FFE ->Accurately ripped! (confidence 2) Statistics Read error : 0 Jitter error (maybe fixed) : 0 Retry sector count : 0 Damaged sector count : 0

Track 03 Filename : /Users/tom/Oscar Peterson Trio/03 - Thag's Dance.flac Pre-gap length : 00:03:48

Track gain : -3.10 dB Peak : 0.999969 CRC32 hash (test run) : 2EDED66F CRC32 hash : 2EDED66F CRC32 hash (skip zero) : B36651D3 AccurateRip signature : 71F02A54 ->Accurately ripped! (confidence 2) Statistics Read error : 0 Jitter error (maybe fixed) : 0 Retry sector count : 0 Damaged sector count : 0

Track 04 Filename : /Users/tom/Oscar Peterson Trio/04 - Ill Wind.flac Pre-gap length : 00:03:60

Track gain : -1.29 dB Peak : 0.855865 CRC32 hash (test run) : 6A3CBC35 CRC32 hash : 6A3CBC35 CRC32 hash (skip zero) : E98BE6C9 AccurateRip signature : E45CF071 ->Accurately ripped! (confidence 2) Statistics Read error : 0 Jitter error (maybe fixed) : 0 Retry sector count : 0 Damaged sector count : 0

Track 05 Filename : /Users/tom/Oscar Peterson Trio/05 - Kadota's Blues.flac Pre-gap length : 00:03:33

Track gain : -1.05 dB Peak : 0.979889 CRC32 hash (test run) : 4EDE3566 CRC32 hash : 4EDE3566 CRC32 hash (skip zero) : 8CD223D3 AccurateRip signature : 8527692D ->Accurately ripped! (confidence 2) Statistics Read error : 0 Jitter error (maybe fixed) : 0 Retry sector count : 0 Damaged sector count : 0

Track 06 Filename : /Users/tom/Oscar Peterson Trio/06 - Scrapple From The Apple.flac Pre-gap length : 00:09:00

Track gain : -1.58 dB Peak : 1.000000 CRC32 hash (test run) : C6C1D567 CRC32 hash : C6C1D567 CRC32 hash (skip zero) : CB4DEB85 AccurateRip signature : AEC881AE ->Accurately ripped! (confidence 2) Statistics Read error : 0 Jitter error (maybe fixed) : 0 Retry sector count : 0 Damaged sector count : 0

Track 07 Filename : /Users/tom/Oscar Peterson Trio/07 - Jim.flac Pre-gap length : 00:10:48

Track gain : 2.65 dB Peak : 0.783966 CRC32 hash (test run) : 1FC584AF CRC32 hash : 1FC584AF CRC32 hash (skip zero) : B23D3DC7 AccurateRip signature : 315539B4 ->Accurately ripped! (confidence 2) Statistics Read error : 0 Jitter error (maybe fixed) : 0 Retry sector count : 0 Damaged sector count : 0

Track 08 Filename : /Users/tom/Oscar Peterson Trio/08 - Band Call.flac Pre-gap length : 00:10:43

Track gain : -2.19 dB Peak : 1.000000 CRC32 hash (test run) : 35E95B5D CRC32 hash : 35E95B5D CRC32 hash (skip zero) : FAAAF398 AccurateRip signature : E71D5461 ->Accurately ripped! (confidence 2) Statistics Read error : 0 Jitter error (maybe fixed) : 0 Retry sector count : 0 Damaged sector count : 0

Track 09 Filename : /Users/tom/Oscar Peterson Trio/09 - The Night We Called It A Day.flac Pre-gap length : 00:11:68

Track gain : 1.77 dB Peak : 0.762238 CRC32 hash (test run) : 28EE021A CRC32 hash : 28EE021A CRC32 hash (skip zero) : 600E38F4 AccurateRip signature : 860EE009 ->Accurately ripped! (confidence 2) Statistics Read error : 0 Jitter error (maybe fixed) : 0 Retry sector count : 0 Damaged sector count : 0

Track 10 Filename : /Users/tom/Oscar Peterson Trio/10 - Billy Boy.flac Pre-gap length : 00:03:40

Track gain : -1.34 dB Peak : 1.000000 CRC32 hash (test run) : 4AD74DF1 CRC32 hash : 4AD74DF1 CRC32 hash (skip zero) : DC48B7EE AccurateRip signature : 0A1915FC ->Track not present in AccurateRip database. Statistics Read error : 0 Jitter error (maybe fixed) : 0 Retry sector count : 0 Damaged sector count : 0

No errors occurred

End of status report
  
TITLE "The Sound Of The Trio"PERFORMER "Oscar Peterson Trio"CATALOG 0731454332125REM GENRE "Jazz"REM DATE "1961"REM DISCNUMBER 1REM TOTALDISCS 1REM DISCID 9312080AREM REPLAYGAIN_ALBUM_GAIN -0.87 dBREM REPLAYGAIN_ALBUM_PEAK 1.000000FILE "01. Tricrotism.flac" WAVE TRACK 01 AUDIO TITLE "Tricrotism" SONGWRITER "Oscar Pettiford" ISRC USPR36105243 REM REPLAYGAIN_TRACK_GAIN 1.54 dB REM REPLAYGAIN_TRACK_PEAK 0.699432 INDEX 01 00:00:00 TRACK 02 AUDIO TITLE "On Green Dolphin Street" SONGWRITER "Bronislaw Kaper/Ned Washington" ISRC USPR36105245 REM REPLAYGAIN_TRACK_GAIN -0.68 dB REM REPLAYGAIN_TRACK_PEAK 0.870941 INDEX 00 11:07:23FILE "02. On Green Dolphin Street.flac" WAVE INDEX 01 00:00:00 TRACK 03 AUDIO TITLE "Thag's Dance" SONGWRITER "Oscar Peterson" ISRC USPR36105246 REM REPLAYGAIN_TRACK_GAIN -3.10 dB REM REPLAYGAIN_TRACK_PEAK 0.999969 INDEX 00 08:51:67FILE "03. Thag's Dance.flac" WAVE INDEX 01 00:00:00 TRACK 04 AUDIO TITLE "Ill Wind" SONGWRITER "Ted Koehler/Harold Arlen" ISRC USPR36105247 REM REPLAYGAIN_TRACK_GAIN -1.29 dB REM REPLAYGAIN_TRACK_PEAK 0.855865 INDEX 00 05:39:70FILE "04. Ill Wind.flac" WAVE INDEX 01 00:00:00 TRACK 05 AUDIO TITLE "Kadota's Blues" SONGWRITER "Oscar Peterson" ISRC USPR36105248 REM REPLAYGAIN_TRACK_GAIN -1.05 dB REM REPLAYGAIN_TRACK_PEAK 0.979889 INDEX 00 05:33:04FILE "05. Kadota's Blues.flac" WAVE INDEX 01 00:00:00 TRACK 06 AUDIO TITLE "Scrapple From The Apple" SONGWRITER "Charlie Parker" ISRC USPR36105267 REM REPLAYGAIN_TRACK_GAIN -1.58 dB REM REPLAYGAIN_TRACK_PEAK 1.000000 INDEX 00 11:06:10FILE "06. Scrapple From The Apple.flac" WAVE INDEX 01 00:00:00 TRACK 07 AUDIO TITLE "Jim" SONGWRITER "Caesar Petrillo/Nelson Shawn/Edward Ross/Milton Samuels" ISRC USPR36105268 REM REPLAYGAIN_TRACK_GAIN 2.65 dB REM REPLAYGAIN_TRACK_PEAK 0.783966 INDEX 00 09:18:72FILE "07. Jim.flac" WAVE INDEX 01 00:00:00 TRACK 08 AUDIO TITLE "Band Call" SONGWRITER "Duke Ellington" ISRC USPR36105269 REM REPLAYGAIN_TRACK_GAIN -2.19 dB REM REPLAYGAIN_TRACK_PEAK 1.000000 INDEX 00 09:03:15FILE "08. Band Call.flac" WAVE INDEX 01 00:00:00 TRACK 09 AUDIO TITLE "The Night We Called It A Day" SONGWRITER "Matt Dennis/Tom Adair" ISRC USPR36105270 REM REPLAYGAIN_TRACK_GAIN 1.77 dB REM REPLAYGAIN_TRACK_PEAK 0.762238 INDEX 00 07:35:29FILE "09. The Night We Called It A Day.flac" WAVE INDEX 01 00:00:00 TRACK 10 AUDIO TITLE "Billy Boy" SONGWRITER "Traditional" ISRC USPR36105266 REM REPLAYGAIN_TRACK_GAIN -1.34 dB REM REPLAYGAIN_TRACK_PEAK 1.000000 INDEX 00 05:05:10FILE "10. Billy Boy.flac" WAVE INDEX 01 00:00:00


Трекер:  [ 26-Мар-2012 20:45 ]

  

Скачать .torrent

Размер .torrent файла 21 KB


Размер: 505 MB
Хэш (hash) релиза: 7fc2c213b0b36d8f82ba54a018a8af34d3dd56f9

Еще никто не оставлял запись к записи скачать торрент Oscar Peterson, Ray Brown, Ed Tigpen — The Sound Of The Trio . Будь первым!

!Обратная связь