Скачать через торрент музыку Martial Solal - Just Friends - 1997, FLAC бесплатно без регистрации torrent

Если у вас наблюдаются проблемы со скриншотами, переходом по ссылками, скачиванием торрентов - проблемы в блокировщике рекламы AdBlock. #хорошегоДня!


Статистика раздачи
Размер:  299 MB   |    Зарегистрирован:  5 лет 6 месяцев   |    .torrent скачан:  71 раз   |   
Раздают:  1  
   
Загрузка...
 
Автор Сообщение

Umakiro

avatar Umakiro


Martial Solal – Just Friends

Жанр: Post-Bop
Год издания: 1997
Издатель (лейбл): Dreyfus
Номер по каталогу: FDM 36592-2
Аудиокодек: FLAC (*.flac)
Тип рипа: image+.cue
Битрейт аудио: lossless
Продолжительность: 50:48
Rip by bladerunner
Наличие сканов в содержимом раздачи: да

Треклист:
01. Just Friends (6:40)
02. Coming Yesterday (6:46)
03. Willow Weep For Me (3:56)
04. You Stepped Out Of A Dream (5:39)
05. Hommage A Frederic Chopin (2:43)
06. Sapristi (7:24)
07. Summertime (5:39)
08. Sacrebleu (4:36)
09. I'm Getting Sentimental Over You (7:25)

Personnel:
Martial Solal - p
Gary Peacock - b
Paul Motian - d

Rec.: Studio Damiens, Boulogne-Billancourt, France, July 9, 1997.
  
Exact Audio Copy V0.99 prebeta 4 from 23. January 2008

EAC extraction logfile from 17. November 2008, 17:42

Martial Solal / Just Friends

Used drive : PHILIPS DVD+-RW DVD8801 Adapter: 1 ID: 0

Read mode : SecureUtilize accurate stream : YesDefeat audio cache : YesMake use of C2 pointers : No

Read offset correction : 618Overread into Lead-In and Lead-Out : NoFill up missing offset samples with silence : YesDelete leading and trailing silent blocks : NoNull samples used in CRC calculations : YesUsed interface : Native Win32 interface for Win NT & 2000

Used output format : Internal WAV RoutinesSample format : 44.100 Hz; 16 Bit; Stereo

TOC of the extracted CD

Track | Start | Length | Start sector | End sector --------------------------------------------------------- 1 | 0:00.32 | 6:39.53 | 32 | 30009 2 | 6:40.10 | 6:45.55 | 30010 | 60439 3 | 13:25.65 | 3:56.27 | 60440 | 78166 4 | 17:22.17 | 5:38.53 | 78167 | 103569 5 | 23:00.70 | 2:43.02 | 103570 | 115796 6 | 25:43.72 | 7:24.00 | 115797 | 149096 7 | 33:07.72 | 5:39.15 | 149097 | 174536 8 | 38:47.12 | 4:36.25 | 174537 | 195261 9 | 43:23.37 | 7:24.45 | 195262 | 228606

Range status and errors

Selected range

Filename C:\Martial Solal - Just Friends\Martial Solal - Just Friends.wav

Peak level 100.0 % Range quality 100.0 % Copy CRC 10CDC178 Copy OK

No errors occurred

AccurateRip summary

Track 1 accurately ripped (confidence 3) [82ED41F1]Track 2 accurately ripped (confidence 3) [978C9563]Track 3 accurately ripped (confidence 3) [D7821892]Track 4 accurately ripped (confidence 3) [47413B98]Track 5 accurately ripped (confidence 3) [07760018]Track 6 accurately ripped (confidence 3) [994E5ABA]Track 7 accurately ripped (confidence 3) [3C77779E]Track 8 accurately ripped (confidence 3) [470F647C]Track 9 accurately ripped (confidence 3) [BA8A7D19]

All tracks accurately ripped

End of status report
  
REM GENRE JazzREM DATE 1997REM DISCID 750BE809REM COMMENT "ExactAudioCopy v0.99pb4"CATALOG 0000000000000PERFORMER "Martial Solal"TITLE "Just Friends"FILE "Martial Solal - Just Friends.flac" WAVE TRACK 01 AUDIO TITLE "Just Friends" PERFORMER "Martial Solal" ISRC FR14F9700300 INDEX 00 00:00:00 INDEX 01 00:00:32 TRACK 02 AUDIO TITLE "Coming Yesterday" PERFORMER "Martial Solal" ISRC FR14F9700290 FLAGS DCP INDEX 00 06:35:72 INDEX 01 06:40:10 TRACK 03 AUDIO TITLE "Willow Weep For Me" PERFORMER "Martial Solal" ISRC FR14F9700310 FLAGS DCP INDEX 00 13:21:32 INDEX 01 13:25:65 TRACK 04 AUDIO TITLE "You Stepped Out Of A Dream" PERFORMER "Martial Solal" ISRC FR14F9700270 FLAGS DCP INDEX 00 17:18:17 INDEX 01 17:22:17 TRACK 05 AUDIO TITLE "Hommage A Frederic Chopin" PERFORMER "Martial Solal" ISRC FR14F9700230 FLAGS DCP INDEX 00 22:57:27 INDEX 01 23:00:70 TRACK 06 AUDIO TITLE "Sapristi" PERFORMER "Martial Solal" ISRC FR14F9700280 FLAGS DCP INDEX 00 25:40:47 INDEX 01 25:43:72 TRACK 07 AUDIO TITLE "Summertime" PERFORMER "Martial Solal" ISRC FR14F9700240 FLAGS DCP INDEX 00 33:04:47 INDEX 01 33:07:72 TRACK 08 AUDIO TITLE "Sacrebleu" PERFORMER "Martial Solal" ISRC FR14F9700250 FLAGS DCP INDEX 00 38:43:57 INDEX 01 38:47:12 TRACK 09 AUDIO TITLE "I'm Getting Sentimental Over You" PERFORMER "Martial Solal" ISRC FR14F9700260 FLAGS DCP INDEX 00 43:20:45 INDEX 01 43:23:37


Трекер:  [ 26-Мар-2012 20:44 ]

  

Скачать .torrent

Размер .torrent файла 12 KB


Размер: 299 MB
Хэш (hash) релиза: ce2722a2949ac7096152445e707f1d26810264f6

Еще никто не оставлял запись к записи скачать торрент Martial Solal - Just Friends - 1997, FLAC . Будь первым!

!Обратная связь